Results 1 to 1 of 1
  1. #1

    Thumbs up Pavitra Papi (1970) Untouched NTSC DVD9 - Malhiyaar

    Follow us on Social Media






    General :
    Format : MPEG-PS
    Duration : 23mn 54s
    Overall bit rate mode : Variable
    Overall bit rate : 5 987 Kbps

    Video:
    ID : 224 (0xE0)
    Format : MPEG Video
    Format version : Version 2
    Format profile : [email protected]
    Format settings, BVOP : Yes
    Format settings, Matrix : Custom
    Format settings, GOP : M=3, N=15
    Duration : 23mn 54s
    Bit rate mode : Variable
    Bit rate : 5 420 Kbps
    Maximum bit rate : 7 000 Kbps
    Width : 720 pixels
    Height : 480 pixels
    Display aspect ratio : 4:3
    Frame rate : 29.970 fps
    Standard : NTSC
    Color space : YUV
    Chroma subsampling : 4:2:0
    Bit depth : 8 bits
    Scan type : Interlaced
    Scan order : Top Field First
    Compression mode : Lossy
    Bits/(Pixel*Frame) : 0.523
    Stream size : 927 MiB (91%)

    Audio:
    ID : 189 (0xBD)-128 (0x80)
    Format : AC-3
    Format/Info : Audio Coding 3
    Mode extension : CM (complete main)
    Format settings, Endianness : Big
    Muxing mode : DVD-Video
    Duration : 23mn 52s
    Bit rate mode : Constant
    Bit rate : 448 Kbps
    Channel(s) : 6 channels
    Channel positions : Front: L C R, Side: L R, LFE
    Sampling rate : 48.0 KHz
    Bit depth : 16 bits
    Compression mode : Lossy
    Delay relative to video : 1s 368ms
    Stream size : 76.5 MiB (7%)



    700MB Parts | INTERCHANGEABLE LINKS | NO PASSWORD


    Code:
    http://www.netload.in/dateieDbdf1W1ak/AMP-Pavitra.Papi.1970.Untouched.NTSC.DVD9.Malhiyaar.part01.rar.htm
    http://www.netload.in/dateixAAJoq2foI/AMP-Pavitra.Papi.1970.Untouched.NTSC.DVD9.Malhiyaar.part02.rar.htm
    http://www.netload.in/dateiSyKtiIIVtS/AMP-Pavitra.Papi.1970.Untouched.NTSC.DVD9.Malhiyaar.part03.rar.htm
    http://www.netload.in/dateibduXAFAHo1/AMP-Pavitra.Papi.1970.Untouched.NTSC.DVD9.Malhiyaar.part04.rar.htm
    http://www.netload.in/dateithuOyp7pyN/AMP-Pavitra.Papi.1970.Untouched.NTSC.DVD9.Malhiyaar.part05.rar.htm
    http://www.netload.in/dateiZZQ5rji1Uj/AMP-Pavitra.Papi.1970.Untouched.NTSC.DVD9.Malhiyaar.part06.rar.htm
    http://www.netload.in/dateirsYyup8KWb/AMP-Pavitra.Papi.1970.Untouched.NTSC.DVD9.Malhiyaar.part07.rar.htm
    http://www.netload.in/datei9pYxhSTNTi/AMP-Pavitra.Papi.1970.Untouched.NTSC.DVD9.Malhiyaar.part08.rar.htm
    http://www.netload.in/dateiUEYTkTlqnF/AMP-Pavitra.Papi.1970.Untouched.NTSC.DVD9.Malhiyaar.part09.rar.htm
    http://www.netload.in/dateigQUjdnutz3/AMP-Pavitra.Papi.1970.Untouched.NTSC.DVD9.Malhiyaar.part10.rar.htm
    http://www.netload.in/dateiEXlijthIAJ/AMP-Pavitra.Papi.1970.Untouched.NTSC.DVD9.Malhiyaar.part11.rar.htm

    Code:
    http://ul.to/3ba7crey/AMP-Pavitra.Papi.1970.Untouched.NTSC.DVD9.Malhiyaar.part01.rar
    http://ul.to/ac798c6e/AMP-Pavitra.Papi.1970.Untouched.NTSC.DVD9.Malhiyaar.part02.rar
    http://ul.to/9hj5b4qg/AMP-Pavitra.Papi.1970.Untouched.NTSC.DVD9.Malhiyaar.part03.rar
    http://ul.to/b1jf1io8/AMP-Pavitra.Papi.1970.Untouched.NTSC.DVD9.Malhiyaar.part04.rar
    http://ul.to/0tjcc4iq/AMP-Pavitra.Papi.1970.Untouched.NTSC.DVD9.Malhiyaar.part05.rar
    http://ul.to/v2odx014/AMP-Pavitra.Papi.1970.Untouched.NTSC.DVD9.Malhiyaar.part06.rar
    http://ul.to/3yeolffd/AMP-Pavitra.Papi.1970.Untouched.NTSC.DVD9.Malhiyaar.part07.rar
    http://ul.to/6dazplg0/AMP-Pavitra.Papi.1970.Untouched.NTSC.DVD9.Malhiyaar.part08.rar
    http://ul.to/yfr9qy2j/AMP-Pavitra.Papi.1970.Untouched.NTSC.DVD9.Malhiyaar.part09.rar
    http://ul.to/if9tac1v/AMP-Pavitra.Papi.1970.Untouched.NTSC.DVD9.Malhiyaar.part10.rar
    http://ul.to/om7qz6lw/AMP-Pavitra.Papi.1970.Untouched.NTSC.DVD9.Malhiyaar.part11.rar
    Man is still the most extraordinary computer of all.




 

 

Posting Permissions

  • You may not post new threads
  • You may not post replies
  • You may not post attachments
  • You may not edit your posts
  •