Results 1 to 1 of 1
  1. #1
    Hot Member www.desirulez.net
    Join Date
    Oct 2011
    Posts
    720

    Thumbs up Vicky Donor (2012) - XviD -1/5 - DVDscr - AC3 -[TDT]

    Follow us on Social Media







    Code:
    General
    Complete name                    : Vicky Donor (2012) - Xvid - DvdScr Rip - AC3 - TDT.avi
    IMDb                             : Vicky Donor (2012) - IMDb
    Format                           : AVI
    File size                        : 896 MiB
    Duration                         : 2h 1mn
    Overall bit rate                 : 1 034 Kbps
    Source                           : DvDScr @ Team ICTV.
    Ripper                           : KINGFISHER [~TDT~].
     			     
    Codec ID                         : XVID
    Duration                         : 2h 1mn
    Bit rate                         : 897 Kbps
    Width                            : 656 pixels
    Height                           : 336 pixels
    Display aspect ratio             : 1.952
    Frame rate                       : 23.976 fps
    Bits/(Pixel*Frame)               : 0.170
    Stream size                      : 777 MiB (87%)
    
    Audio
    
    Duration                         : 2h 1mn
    Bit rate mode                    : Constant
    Bit rate                         : 128 Kbps
    Channel(s)                       : 2 channels
    Sampling rate                    : 48.0 KHz
    Stream size                      : 111 MiB (12%)











    Code:
    http://freakshare.com/files/am849ne8/Vicky-20Donor-20-282012-29-20--20Xvid-20--20DvdScr-20Rip-20--20AC3-20--20TDT.avi.html
    
    http://hipfile.com/tk3j1bn50wda/Vicky_Donor_(2012)_-_Xvid_-_DvdScr_Rip_-_AC3_-_TDT.avi.html
    
    http://turbobit.net/lczt7h35loxm.html
    
    http://www.filefactory.com/file/6vbxwwyakf2z/n/Vicky_Donor_%282012%29_-_Xvid_-_DvdScr_Rip_-_AC3_-_TDT.avi

 

 

Posting Permissions

  • You may not post new threads
  • You may not post replies
  • You may not post attachments
  • You may not edit your posts
  •