Results 1 to 1 of 1
  1. #1
    dR Rockers www.desirulez.net
    Join Date
    Aug 2011
    Posts
    5,859

    Cool Vicky Donor (2012) - XviD -1/5 - DVDscr - AC3 -[TDT]

    Follow us on Social Media









    Code:
    General
    Complete name                    : Vicky Donor (2012) - Xvid - DvdScr Rip - AC3 - TDT.avi
    IMDb                             : Vicky Donor (2012) - IMDb
    Format                           : AVI
    File size                        : 896 MiB
    Duration                         : 2h 1mn
    Overall bit rate                 : 1 034 Kbps
    Source                           : DvDScr @ Team ICTV.
    Ripper                           : KINGFISHER [~TDT~].
     			     
    Codec ID                         : XVID
    Duration                         : 2h 1mn
    Bit rate                         : 897 Kbps
    Width                            : 656 pixels
    Height                           : 336 pixels
    Display aspect ratio             : 1.952
    Frame rate                       : 23.976 fps
    Bits/(Pixel*Frame)               : 0.170
    Stream size                      : 777 MiB (87%)
    
    Audio
    
    Duration                         : 2h 1mn
    Bit rate mode                    : Constant
    Bit rate                         : 128 Kbps
    Channel(s)                       : 2 channels
    Sampling rate                    : 48.0 KHz
    Stream size                      : 111 MiB (12%)













    Code:
    http://www.netload.in/dateiTLbGeodInc/Vicky Donor (2012) - Xvid - DvdScr Rip - AC3 - TDT.avi.htm
    Code:
    http://extabit.com/file/2dvlowebq8sqv/Vicky Donor (2012) - Xvid - DvdScr Rip - AC3 - TDT.avi

 

 

Posting Permissions

  • You may not post new threads
  • You may not post replies
  • You may not post attachments
  • You may not edit your posts
  •