Results 1 to 1 of 1
  1. #1
    praneeth2010
    Guest

    Cool Vicky Donor (2012) - 720P - DvdScrRip - X264 - AC3 - Team DrC

    Follow us on Social Media











    General

    Format : Matroska
    Format version : Version 2
    File size : 1.65 GiB
    Duration : 2h 1mn
    Overall bit rate mode : Variable
    Overall bit rate : 1 949 Kbps


    Video

    Format : AVC
    Format/Info : Advanced Video Codec
    Format profile : [email protected]
    Format settings, CABAC : Yes
    Format settings, ReFrames : 3 frames
    Codec ID : V_MPEG4/ISO/AVC
    Duration : 2h 1mn
    Bit rate mode : Variable
    Bit rate : 1 499 Kbps
    Maximum bit rate : 40.0 Mbps
    Width : 1 280 pixels
    Height : 544 pixels
    Display aspect ratio : 2.35:1
    Frame rate : 23.976 fps
    Color space : YUV
    Chroma subsampling : 4:2:0
    Bit depth : 8 bits
    Scan type : Progressive
    Bits/(Pixel*Frame) : 0.090
    Stream size : 1.24 GiB (75%)


    Audio

    Format : AC-3
    Format/Info : Audio Coding 3
    Mode extension : CM (complete main)
    Format settings, Endianness : Big
    Codec ID : A_AC3
    Duration : 2h 1mn
    Bit rate mode : Constant
    Bit rate : 448 Kbps
    Channel(s) : 6 channels
    Channel positions : Front: L C R, Side: L R, LFE
    Sampling rate : 48.0 KHz
    Bit depth : 16 bits
    Compression mode : Lossy
    Stream size : 388 MiB (23%)
    Credits To :- DRC

    Uploaded By :- Team SD



    Code:
    http://www.filefactory.com/file/ipcuueygmfz/n/VCD.720P.DvdScrrip.X264.AC3.By.Team.SD.mkv
    
    http://letitbit.net/download/03641.0b15d8e8708b6a647b8457700000/VCD.720P.DvdScrrip.X264.AC3.By.Team.SD.mkv.html
    
    http://extabit.com/file/29gxnwbmrcl8t/VCD.720P.DvdScrrip.X264.AC3.By.Team.SD.mkv

    Improtant Note :-

    No Duty Is More Urgent Than That Of Returning Thanks To Keep Topic Alive.

    SayinG THANKS & Comments For Some One's EFFORT Is A GooD Habit.



 

 

Posting Permissions

  • You may not post new threads
  • You may not post replies
  • You may not post attachments
  • You may not edit your posts
  •