Results 1 to 1 of 1
  1. #1
    dR Rockers www.desirulez.net
    Join Date
    Aug 2011
    Posts
    5,859

    Cool Bittoo Boss (2012) - 720p - DVDRip - DXVA - x264 - AC3 Dolby 5.1 - [DMF EXCLUSIVE]

    Follow us on Social Media









    Code:
    Format                                   : Matroska
    Format version                           : Version 2
    File size                                : 3.82 GiB
    Duration                                 : 2h 2mn
    Overall bit rate                         : 4 448 Kbps
    Encoded date                             : UTC 2012-05-11 16:13:39
    Writing application                      : mkvmerge v5.4.0 ('Piper') built on Mar 10 2012 13:34:39
    Writing library                          : libebml v1.2.3 + libmatroska v1.3.0
    
    Video
    ID                                       : 1
    Format                                   : AVC
    Format/Info                              : Advanced Video Codec
    Format profile                           : [email protected]
    Format settings, CABAC                   : Yes
    Format settings, ReFrames                : 4 frames
    Muxing mode                              : Header stripping
    Codec ID                                 : V_MPEG4/ISO/AVC
    Duration                                 : 2h 2mn
    Bit rate                                 : 4 000 Kbps
    Width                                    : 1 280 pixels
    Height                                   : 720 pixels
    Display aspect ratio                     : 2.40:1
    Frame rate                               : 23.976 fps
    Color space                              : YUV
    Chroma subsampling                       : 4:2:0
    Bit depth                                : 8 bits
    Scan type                                : Progressive
    Bits/(Pixel*Frame)                       : 0.181
    Stream size                              : 3.36 GiB (88%)
    Writing library                          : x264 core 122 r2183 c522ad1
    Encoding settings                        : cabac=1 / ref=3 /  deblock=1:-1:-1 / analyse=0x3:0x113 / me=hex / subme=5 / psy=1 /  psy_rd=1.00:0.15 / mixed_ref=1 / me_range=16 / chroma_me=1 / trellis=1 /  8x8dct=1 / cqm=0 / deadzone=21,11 / fast_pskip=1 / chroma_qp_offset=-1 /  threads=6 / sliced_threads=0 / nr=0 / decimate=1 / interlaced=0 /  bluray_compat=0 / constrained_intra=0 / bframes=3 / b_pyramid=2 /  b_adapt=1 / b_bias=0 / direct=3 / weightb=1 / open_gop=0 / weightp=2 /  keyint=240 / keyint_min=23 / scenecut=40 / intra_refresh=0 /  rc_lookahead=40 / rc=2pass / mbtree=0 / bitrate=4000 / ratetol=1.0 /  qcomp=0.60 / qpmin=10 / qpmax=51 / qpstep=4 / cplxblur=20.0 / qblur=0.5 /  vbv_maxrate=50000 / vbv_bufsize=50000 / nal_hrd=none / ip_ratio=1.40 /  pb_ratio=1.30 / aq=1:1.00
    Language                                 : English
    Default                                  : Yes
    Forced                                   : No
    Color primaries                          : Generic film
    
    Audio
    ID                                       : 2
    Format                                   : AC-3
    Format/Info                              : Audio Coding 3
    Mode extension                           : CM (complete main)
    Format settings, Endianness              : Big
    Muxing mode                              : Header stripping
    Codec ID                                 : A_AC3
    Duration                                 : 2h 2mn
    Bit rate mode                            : Constant
    Bit rate                                 : 448 Kbps
    Channel(s)                               : 6 channels
    Channel positions                        : Front: L C R, Side: L R, LFE
    Sampling rate                            : 48.0 KHz
    Bit depth                                : 16 bits
    Compression mode                         : Lossy
    Delay relative to video                  : 15ms
    Stream size                              : 394 MiB (10%)
    Title                                    : --DMF--
    Language                                 : Hindi
    Default                                  : Yes
    Forced                                   : No

    Bittoo Boss (2012) 720p DVD-Rip DXVA x264 AC3 Dolby 5.1[DMF EXCLUSIVE](ExDRS)

    English Subtitles Provided
    Source :- DVD9 BY -=ExDKing=-
    Ripper :- daman143m
    ..........Here Goes The Screenshots & Info.........









    SINGLE LINK

    Code:
    http://extabit.com/file/2dvloyr4yuan5/Bitoo Boss (2012)  720p DVD-Rip (UNTOUCHED) DXVA x264 AC3 Dolby 5.1--DMF--(ExDRS).mkv
    SPLLITED LINKS


    Code:
    http://www.netload.in/dateiY6YtvcKZaO/Bitoo Boss (2012) 720p DVD-Rip (UNTOUCHED) DXVA x264 AC3 Dolby 5.1--DMF--(ExDRS).mkv.001.htm
    http://www.netload.in/dateiMkg6K35nNq/Bitoo Boss (2012) 720p DVD-Rip (UNTOUCHED) DXVA x264 AC3 Dolby 5.1--DMF--(ExDRS).mkv.002.htm
    http://www.netload.in/dateidRgkkG7X7p/Bitoo Boss (2012) 720p DVD-Rip (UNTOUCHED) DXVA x264 AC3 Dolby 5.1--DMF--(ExDRS).mkv.003.htm
    http://www.netload.in/dateiSDqzgzYxyQ/Bitoo Boss (2012) 720p DVD-Rip (UNTOUCHED) DXVA x264 AC3 Dolby 5.1--DMF--(ExDRS).mkv.004.htm
    http://www.netload.in/dateigVdTpyRF7b/Bitoo Boss (2012) 720p DVD-Rip (UNTOUCHED) DXVA x264 AC3 Dolby 5.1--DMF--(ExDRS).mkv.005.htm
    http://www.netload.in/dateihmYmUTVac5/Bitoo Boss (2012) 720p DVD-Rip (UNTOUCHED) DXVA x264 AC3 Dolby 5.1--DMF--(ExDRS).mkv.006.htm
    http://www.netload.in/dateiFlNiI8ausr/Bitoo Boss (2012) 720p DVD-Rip (UNTOUCHED) DXVA x264 AC3 Dolby 5.1--DMF--(ExDRS).sub.htm
    Code:
    http://extabit.com/file/2dvloyr4wyis1/Bitoo Boss (2012)  720p DVD-Rip (UNTOUCHED) DXVA x264 AC3 Dolby 5.1--DMF--(ExDRS).mkv.001
    http://extabit.com/file/2dvloyr4xlfq9/Bitoo Boss (2012)  720p DVD-Rip (UNTOUCHED) DXVA x264 AC3 Dolby 5.1--DMF--(ExDRS).mkv.002
    http://extabit.com/file/2dvloyr4xlfpt/Bitoo Boss (2012)  720p DVD-Rip (UNTOUCHED) DXVA x264 AC3 Dolby 5.1--DMF--(ExDRS).mkv.003
    http://extabit.com/file/2dvloyr4xlfld/Bitoo Boss (2012)  720p DVD-Rip (UNTOUCHED) DXVA x264 AC3 Dolby 5.1--DMF--(ExDRS).mkv.004
    http://extabit.com/file/2dvloyr4wyfoh/Bitoo Boss (2012)  720p DVD-Rip (UNTOUCHED) DXVA x264 AC3 Dolby 5.1--DMF--(ExDRS).mkv.005
    http://extabit.com/file/2dvloyr4wxzq9/Bitoo Boss (2012)  720p DVD-Rip (UNTOUCHED) DXVA x264 AC3 Dolby 5.1--DMF--(ExDRS).mkv.006
    http://extabit.com/file/2dvloyr4xlfn5/Bitoo Boss (2012)  720p DVD-Rip (UNTOUCHED) DXVA x264 AC3 Dolby 5.1--DMF--(ExDRS).sub

 

 

Posting Permissions

  • You may not post new threads
  • You may not post replies
  • You may not post attachments
  • You may not edit your posts
  •