Results 1 to 1 of 1
  1. #1

    Thumbs up Bittoo Boss (2012) Upscaled DVDRip 720p x264 AC3 Subs - BWTV

    Follow us on Social Media






    General
    Complete name : Bittoo Boss (2012) 720P DVD Rip X264 AC3 Subs BWTV.mkv
    Format : Matroska
    Format version : Version 2
    File size : 2.19 GiB
    Duration : 2h 2mn
    Overall bit rate : 2 544 Kbps
    Encoded date : UTC 2012-05-09 14:28:09
    Writing application : mkvmerge v4.9.1 ('Ich will') built on Jul 11 2011 23:53:15
    Writing library : libebml v1.2.1 + libmatroska v1.1.1

    Video
    ID : 1
    Format : AVC
    Format/Info : Advanced Video Codec
    Format profile : [email protected]
    Format settings, CABAC : Yes
    Format settings, ReFrames : 4 frames
    Codec ID : V_MPEG4/ISO/AVC
    Duration : 2h 2mn
    Bit rate : 2 095 Kbps
    Width : 1 280 pixels
    Height : 576 pixels
    Display aspect ratio : 2.222
    Frame rate : 23.976 fps
    Color space : YUV
    Chroma subsampling : 4:2:0
    Bit depth : 8 bits
    Scan type : Progressive
    Bits/(Pixel*Frame) : 0.119
    Stream size : 1.76 GiB (80%)
    Writing library : x264 core 116 r2074 2641b9e
    Encoding settings : cabac=1 / ref=3 / deblock=1:0:0 / analyse=0x3:0x113 / me=hex / subme=7 / psy=1 / psy_rd=1.00:0.00 / mixed_ref=1 / me_range=16 / chroma_me=1 / trellis=1 / 8x8dct=1 / cqm=0 / deadzone=21,11 / fast_pskip=1 / chroma_qp_offset=-2 / threads=6 / sliced_threads=0 / nr=0 / decimate=1 / interlaced=0 / bluray_compat=0 / constrained_intra=0 / bframes=3 / b_pyramid=2 / b_adapt=1 / b_bias=0 / direct=1 / weightb=1 / open_gop=0 / weightp=2 / keyint=250 / keyint_min=23 / scenecut=40 / intra_refresh=0 / rc_lookahead=40 / rc=2pass / mbtree=1 / bitrate=2095 / ratetol=1.0 / qcomp=0.60 / qpmin=10 / qpmax=51 / qpstep=4 / cplxblur=20.0 / qblur=0.5 / ip_ratio=1.40 / aq=1:1.00
    Language : English

    Audio
    ID : 2
    Format : AC-3
    Format/Info : Audio Coding 3
    Mode extension : CM (complete main)
    Codec ID : A_AC3
    Duration : 2h 2mn
    Bit rate mode : Constant
    Bit rate : 448 Kbps
    Channel(s) : 6 channels
    Channel positions : Front: L C R, Side: L R, LFE
    Sampling rate : 48.0 KHz
    Bit depth : 16 bits
    Compression mode : Lossy
    Stream size : 394 MiB (18%)


    700MB Parts | INTERCHANGEABLE LINKS | NO PASSWORD


    Code:
    http://www.netload.in/dateiEkIIDuHWGO/AMP-Bittoo.Boss.2012.720p.DVDRip.x264.AC3.Subs.BWTV.part1.rar.htm
    http://www.netload.in/dateiG4jEpdSwLs/AMP-Bittoo.Boss.2012.720p.DVDRip.x264.AC3.Subs.BWTV.part2.rar.htm
    http://www.netload.in/dateiqg4iQXIc1b/AMP-Bittoo.Boss.2012.720p.DVDRip.x264.AC3.Subs.BWTV.part3.rar.htm
    http://www.netload.in/dateipU7lSHlf4I/AMP-Bittoo.Boss.2012.720p.DVDRip.x264.AC3.Subs.BWTV.part4.rar.htm

    Code:
    http://ul.to/i0rmm9uu/AMP-Bittoo.Boss.2012.720p.DVDRip.x264.AC3.Subs.BWTV.part1.rar
    http://ul.to/uteqn2la/AMP-Bittoo.Boss.2012.720p.DVDRip.x264.AC3.Subs.BWTV.part2.rar
    http://ul.to/1ocemsxt/AMP-Bittoo.Boss.2012.720p.DVDRip.x264.AC3.Subs.BWTV.part3.rar
    http://ul.to/wxgicoe7/AMP-Bittoo.Boss.2012.720p.DVDRip.x264.AC3.Subs.BWTV.part4.r
    Man is still the most extraordinary computer of all.




 

 

Posting Permissions

  • You may not post new threads
  • You may not post replies
  • You may not post attachments
  • You may not edit your posts
  •