Results 1 to 1 of 1
  1. #1
    praneeth2010
    Guest

    Cool Bitto Boss (2012) - 1/3DvdRip - XviD - AC3 - ESubs - Team BWTV

    Follow us on Social Media












    General Complete name : Bittoo Boss (2012) DVD Rip Xvid AC3 Subs BWTV.avi Format : AVI Format/Info : Audio Video Interleave File size : 1.45 GiB Duration : 2h 2mn Overall bit rate : 1 686 Kbps Writing library : Boilsoft AVI tool build 1/release Video ID : 0 Format : MPEG-4 Visual Format profile : Advanced [email protected] Format settings, BVOP : 2 Format settings, QPel : Yes Format settings, GMC : No warppoints Format settings, Matrix : Default (H.263) Codec ID : XVID Codec ID/Hint : XviD Duration : 2h 2mn Bit rate : 1 229 Kbps Width : 640 pixels Height : 288 pixels Display aspect ratio : 2.222 Frame rate : 23.976 fps Color space : YUV Chroma subsampling : 4:2:0 Bit depth : 8 bits Scan type : Progressive Compression mode : Lossy Bits/(Pixel*Frame) : 0.278 Stream size : 1.06 GiB (73%) Writing library : XviD 1.2.1 (UTC 2008-12-04) Audio ID : 1 Format : AC-3 Format/Info : Audio Coding 3 Mode extension : CM (complete main) Codec ID : 2000 Duration : 2h 2mn Bit rate mode : Constant Bit rate : 448 Kbps Channel(s) : 6 channels Channel positions : Front: L C R, Side: L R, LFE Sampling rate : 48.0 KHz Bit depth : 16 bits Compression mode : Lossy Stream size : 394 MiB (27%) Alignment : Split accross interleaves Interleave, duration : 42 ms (1.00 video frame) Interleave, preload duration : 500 ms
    Credits To :- Team BWTV

    Uploaded By :- Team SD




    Filefactory Links:

    Code:
    http://www.filefactory.com/file/6onqsed7tttx/n/BB.2Cd.DvdRip.XviD.AC3.ESubs.By.Team.SD.avi
    
    SUBS:
    http://www.filefactory.com/file/2ytsjt7zwg0f/n/BB.2Cd.DvdRip.XviD.AC3.ESubs.By.Team.SD.srt
    Extabit Links:

    Code:
    http://extabit.com/file/29gxnzt648ygu/BB.2Cd.DvdRip.XviD.AC3.ESubs.By.Team.SD.avi
    
    SUBS:
    http://extabit.com/file/29gxnzt649nry/BB.2Cd.DvdRip.XviD.AC3.ESubs.By.Team.SD.srt
    Letitbit Links:

    Code:
    http://letitbit.net/download/53089.587e0db753169181908e022056f7/BB.2Cd.DvdRip.XviD.AC3.ESubs.By.Team.SD.avi.html
    
    SUBS:
    http://letitbit.net/download/89606.81123382807c103e148fd2258dde/BB.2Cd.DvdRip.XviD.AC3.ESubs.By.Team.SD.srt.html

    Improtant Note :-

    No Duty Is More Urgent Than That Of Returning Thanks To Keep Topic Alive.

    SayinG THANKS & Comments For Some One's EFFORT Is A GooD Habit.



 

 

Posting Permissions

  • You may not post new threads
  • You may not post replies
  • You may not post attachments
  • You may not edit your posts
  •