Results 1 to 1 of 1
  1. #1
    dR Rockers www.desirulez.net
    Join Date
    Aug 2011
    Posts
    5,859

    Cool Bittoo Boss (2012) 1CD DVD Rip Xvid MP3 Subs BWTV

    Follow us on Social Media









    Code:
    General Complete name                            : Bittoo Boss (2012) 1CD DVD Rip Xvid MP3 Subs BWTV.avi Format                                   : AVI Format/Info                              : Audio Video Interleave File size                                : 695 MiB Duration                                 : 2h 2mn Overall bit rate                         : 791 Kbps Writing library                          : Boilsoft AVI tool build 1/release  Video ID                                       : 0 Format                                   : MPEG-4 Visual Format profile                           : Advanced [email protected] Format settings, BVOP                    : 2 Format settings, QPel                    : Yes Format settings, GMC                     : No warppoints Format settings, Matrix                  : Default (H.263) Codec ID                                 : XVID Codec ID/Hint                            : XviD Duration                                 : 2h 2mn Bit rate                                 : 685 Kbps Width                                    : 624 pixels Height                                   : 272 pixels Display aspect ratio                     : 2.25:1 Frame rate                               : 23.976 fps Color space                              : YUV Chroma subsampling                       : 4:2:0 Bit depth                                : 8 bits Scan type                                : Progressive Compression mode                         : Lossy Bits/(Pixel*Frame)                       : 0.168 Stream size                              : 602 MiB (87%) Writing library                          : XviD 1.2.1 (UTC 2008-12-04)  Audio ID                                       : 1 Format                                   : MPEG Audio Format version                           : Version 1 Format profile                           : Layer 3 Mode                                     : Joint stereo Mode extension                           : MS Stereo Codec ID                                 : 55 Codec ID/Hint                            : MP3 Duration                                 : 2h 2mn Bit rate mode                            : Constant Bit rate                                 : 96.0 Kbps Channel(s)                               : 2 channels Sampling rate                            : 32.0 KHz Compression mode                         : Lossy Stream size                              : 84.4 MiB (12%) Alignment                                : Split accross interleaves Interleave, duration                     : 42 ms (1.00 video frame) Interleave, preload duration             : 500 ms Writing library                          : LAME3.99r Encoding settings                        : -m j -V 4 -q 2 -lowpass 15.1 -b 96








    Code:
    http://extabit.com/file/2dvlp0hkq6vd6/Bittoo Boss (2012) 1CD DVD Rip Xvid MP3 Subs BWTV.avi
    http://extabit.com/file/2dvlp0hkmh5xm/Bittoo Boss (2012) 1CD DVD Rip Xvid MP3 Subs BWTV.srt

    Code:
    http://ul.to/e6r0w0qe/Bittoo Boss (2012) 1CD DVD Rip Xvid MP3 Subs BWTV.avi
    http://ul.to/fyqr2k59/Bittoo Boss (2012) 1CD DVD Rip Xvid MP3 Subs BWTV.srt

 

 

Posting Permissions

  • You may not post new threads
  • You may not post replies
  • You may not post attachments
  • You may not edit your posts
  •