Results 1 to 1 of 1
  1. #1

    Thumbs up Agent Vinod (2012) 720p Upscaled DVDRip x264 AC3 - ModernMirza

    Follow us on Social Media






    Credits:
    anilambani

    General
    Format : Matroska
    Format version : Version 2
    File size : 4.37 GiB
    Duration : 2h 36mn
    Overall bit rate : 4 002 Kbps
    Encoded date : UTC 2012-04-27 13:06:31
    Writing application : mkvmerge v4.9.1 ('Ich will') built on Jul 11 2011 23:53:15
    Writing library : libebml v1.2.1 + libmatroska v1.1.1

    Video
    ID : 1
    Format : AVC
    Format/Info : Advanced Video Codec
    Format profile : [email protected]
    Format settings, CABAC : Yes
    Format settings, ReFrames : 4 frames
    Codec ID : V_MPEG4/ISO/AVC
    Duration : 2h 36mn
    Bit rate : 3 552 Kbps
    Width : 1 280 pixels
    Height : 544 pixels
    Display aspect ratio : 2.35:1
    Frame rate : 23.976 fps
    Color space : YUV
    Chroma subsampling : 4:2:0
    Bit depth : 8 bits
    Scan type : Progressive
    Bits/(Pixel*Frame) : 0.213
    Stream size : 3.80 GiB (87%)
    Writing library : x264 core 116 r2074 2641b9e
    Language : English

    Audio
    ID : 2
    Format : AC-3
    Format/Info : Audio Coding 3
    Mode extension : CM (complete main)
    Codec ID : A_AC3
    Duration : 2h 36mn
    Bit rate mode : Constant
    Bit rate : 448 Kbps
    Channel(s) : 6 channels
    Channel positions : Front: L C R, Side: L R, LFE
    Sampling rate : 48.0 KHz
    Bit depth : 16 bits
    Compression mode : Lossy
    Delay relative to video : 16ms
    Stream size : 501 MiB (11%)


    700MB Parts | INTERCHANGEABLE LINKS | NO PASSWORD


    Code:
    http://www.netload.in/dateiKl34ZPRJzF/AMP-Agent.Vinod.2012.720p.DVDRip.Upscaled.x264-ModernMirza.part1.rar.htm
    http://www.netload.in/dateipL4PGTs6gp/AMP-Agent.Vinod.2012.720p.DVDRip.Upscaled.x264-ModernMirza.part2.rar.htm
    http://www.netload.in/datei79xh6a4W9w/AMP-Agent.Vinod.2012.720p.DVDRip.Upscaled.x264-ModernMirza.part3.rar.htm
    http://www.netload.in/dateiQCF8nkP0sw/AMP-Agent.Vinod.2012.720p.DVDRip.Upscaled.x264-ModernMirza.part4.rar.htm
    http://www.netload.in/dateisMj1aCx69V/AMP-Agent.Vinod.2012.720p.DVDRip.Upscaled.x264-ModernMirza.part5.rar.htm
    http://www.netload.in/datei75vdykpPIL/AMP-Agent.Vinod.2012.720p.DVDRip.Upscaled.x264-ModernMirza.part6.rar.htm
    http://www.netload.in/dateiIQEfM6dP4V/AMP-Agent.Vinod.2012.720p.DVDRip.Upscaled.x264-ModernMirza.part7.rar.htm

    Code:
    http://ul.to/me7o1zt5/AMP-Agent.Vinod.2012.720p.DVDRip.Upscaled.x264-ModernMirza.part1.rar
    http://ul.to/u3vsjpbe/AMP-Agent.Vinod.2012.720p.DVDRip.Upscaled.x264-ModernMirza.part2.rar
    http://ul.to/47g6s625/AMP-Agent.Vinod.2012.720p.DVDRip.Upscaled.x264-ModernMirza.part3.rar
    http://ul.to/sjzfucwv/AMP-Agent.Vinod.2012.720p.DVDRip.Upscaled.x264-ModernMirza.part4.rar
    http://ul.to/0ssdq4n5/AMP-Agent.Vinod.2012.720p.DVDRip.Upscaled.x264-ModernMirza.part5.rar
    http://ul.to/uvk9svtq/AMP-Agent.Vinod.2012.720p.DVDRip.Upscaled.x264-ModernMirza.part6.rar
    http://ul.to/u63cc6a5/AMP-Agent.Vinod.2012.720p.DVDRip.Upscaled.x264-ModernMirza.part7.rar
    Man is still the most extraordinary computer of all.




 

 

Posting Permissions

  • You may not post new threads
  • You may not post replies
  • You may not post attachments
  • You may not edit your posts
  •