Results 1 to 3 of 3
  1. #1
    Hot Member www.desirulez.net
    Join Date
    Sep 2009
    Posts
    1,215

    Thumbs up Oru Kal Oru Kannadi (2012) Lotus - Video Songs - x264 - 5.1 - Team IST [Exclusive]

    Follow us on Social Media








    Code:
    Video
    ID                                       : 1
    Format                                   : AVC
    Format/Info                              : Advanced Video Codec
    Format profile                           : [email protected]
    Format settings, CABAC                   : Yes
    Format settings, ReFrames                : 4 frames
    Codec ID                                 : V_MPEG4/ISO/AVC
    Duration                                 : 3mn 26s
    Bit rate                                 : 1 444 Kbps
    Width                                    : 640 pixels
    Height                                   : 272 pixels
    Display aspect ratio                     : 2.35:1
    Frame rate                               : 29.970 fps
    Color space                              : YUV
    Chroma subsampling                       : 4:2:0
    Bit depth                                : 8 bits
    Scan type                                : Progressive
    Bits/(Pixel*Frame)                       : 0.277
    Stream size                              : 34.7 MiB (74%)
    Title                                    : Track 1 [a6hatesme]
    
    Audio
    ID                                       : 2
    Format                                   : AC-3
    Format/Info                              : Audio Coding 3
    Mode extension                           : CM (complete main)
    Codec ID                                 : A_AC3
    Duration                                 : 3mn 26s
    Bit rate mode                            : Constant
    Bit rate                                 : 448 Kbps
    Channel(s)                               : 6 channels
    Channel positions                        : Front: L C R, Side: L R, LFE
    Sampling rate                            : 48.0 KHz
    Bit depth                                : 16 bits
    Compression mode                         : Lossy
    Stream size                              : 11.0 MiB (24%)
    Title                                    : Track 1 [a6hatesme]
    Default                                  : Yes
    Forced                                   : No














    Code:
    http://www.filefactory.com/file/2futa3cqjznh/n/Akila_Akila_mkv
    http://www.filefactory.com/file/5rg1pmbag9w7/n/Adada_Oru_mkv
    http://www.filefactory.com/file/6srsgrke0mq7/n/Azhage_Azhage_mkv
    http://www.filefactory.com/file/6t91clagg3d/n/Kaadhal_Oru_mkv
    http://www.filefactory.com/file/inihhxigua1/n/Venaam_Macha_mkv
    
    http://www.pigsonic.com/kwa24jutizso.html
    http://www.pigsonic.com/9gsf8unaumh4.html
    http://www.pigsonic.com/y8yx53d0dqon.html
    http://www.pigsonic.com/thmg8yla2epv.html
    http://www.pigsonic.com/wb3ywwp2kbbx.html
    
    http://turbobit.net/9vvwpq9jh941/Adada Oru.mkv.html
    http://turbobit.net/tc320mf0wpws/Akila Akila.mkv.html
    http://turbobit.net/9z1zvxqywslt/Azhage Azhage.mkv.html
    http://turbobit.net/msuif5q6l1f7/Kaadhal Oru.mkv.html
    http://turbobit.net/1e0xl67qke3u/Venaam Macha.mkv.html
    
    http://sharpfile.com/0lkkjugcgvm7/Adada_Oru.mkv.html
    http://sharpfile.com/bfqsnny5zboe/Akila_Akila.mkv.html
    http://sharpfile.com/j5rfhxq70ss4/Azhage_Azhage.mkv.html
    http://sharpfile.com/dgbx44ghiey3/Kaadhal_Oru.mkv.html
    http://sharpfile.com/90n6es87aexf/Venaam_Macha.mkv.html






  2. #2
    dR Dazzler www.desirulez.net
    Join Date
    Feb 2012
    Location
    I am Saudi\Mecca I
    Posts
    4,637

    Default

    Thanks



  3. #3

    Default

    thks
    WWE WrestleMania 28


 

 

Posting Permissions

  • You may not post new threads
  • You may not post replies
  • You may not post attachments
  • You may not edit your posts
  •