Results 1 to 1 of 1
  1. #1
    Landed To DesiRulez www.desirulez.net
    Join Date
    Jul 2011
    Posts
    11

    Thumbs up Ringa Ringa Marathi Movie

    Follow us on Social Media


















    Code:
    General
    Complete name                            : C:\Documents and Settings\Shreecds\Desktop\ring\Ringa Ringa [2010] Xvid 1 CD DVDRip ESubs [MDG]\Ringa Ringa [2010] Xvid 1 CD DVDRip ESubs [MDG].avi
    Format                                   : AVI
    Format/Info                              : Audio Video Interleave
    File size                                : 695 MiB
    Duration                                 : 1h 42mn
    Overall bit rate                         : 785 Kbps
    
    Video
    ID                                       : 0
    Format                                   : MPEG-4 Visual
    Format profile                           : Advanced [email protected]
    Format settings, BVOP                    : 1
    Format settings, QPel                    : No
    Format settings, GMC                     : No warppoints
    Format settings, Matrix                  : Default (H.263)
    Codec ID                                 : XVID
    Codec ID/Hint                            : XviD
    Duration                                 : 1h 42mn
    Bit rate                                 : 681 Kbps
    Width                                    : 640 pixels
    Height                                   : 272 pixels
    Display aspect ratio                     : 2.35:1
    Frame rate                               : 23.976 fps
    Color space                              : YUV
    Chroma subsampling                       : 4:2:0
    Bit depth                                : 8 bits
    Scan type                                : Progressive
    Compression mode                         : Lossy
    Bits/(Pixel*Frame)                       : 0.163
    Stream size                              : 500 MiB (87%)
    Writing library                          : XviD 1.2.1 (UTC 2008-12-04)
    
    Audio
    ID                                       : 1
    Format                                   : MPEG Audio
    Format version                           : Version 2
    Format profile                           : Layer 3
    Mode                                     : Joint stereo
    Mode extension                           : MS Stereo
    Codec ID                                 : 55
    Codec ID/Hint                            : MP3
    Duration                                 : 1h 42mn
    Bit rate mode                            : Constant
    Bit rate                                 : 64.0 Kbps
    Channel(s)                               : 2 channels
    Sampling rate                            : 24.0 KHz
    Compression mode                         : Lossy
    Stream size                              : 47.0 MiB (8%)
    Alignment                                : Aligned on interleaves
    Title                                    : Ringa Ringa T81 2_0ch 192Kbps DELAY 0ms
    Writing library                          : LAME3.98r
    Encoding settings                        : -m j -V 4 -q 2 -lowpass 11 -b 64




    Code:
    http://freakshare.com/files/xoi9390x/Ringa-Ringa--2010--Xvid-1-CD-DVDRip-ESubs--MDG-.part1.rar.htmls
    
    http://freakshare.com/files/dlbuezaf/Ringa-Ringa--2010--Xvid-1-CD-DVDRip-ESubs--MDG-.part2.rar.html
    http://freakshare.com/files/6z02b562/Ringa-Ringa--2010--Xvid-1-CD-DVDRip-ESubs--MDG-.part3.rar.html
    
    http://freakshare.com/files/yg39ckdh/Ringa-Ringa--2010--Xvid-1-CD-DVDRip-ESubs--MDG-.part4.rar.html

    special Thnx Team MDG

    For Any Help please Mail me [email protected]

 

 

Posting Permissions

  • You may not post new threads
  • You may not post replies
  • You may not post attachments
  • You may not edit your posts
  •