Results 1 to 2 of 2
  1. #1
    praneeth2010
    Guest

    Cool Agent Vinod (2012) - 720P - DvdRip - X264 - AC3 - ESubs - Team BWTV

    Follow us on Social Media













    General Complete name : Agent Vinod (2012) 720P DVD Rip X264 AC3 Subs BWTV.mkv Format : Matroska Format version : Version 2 File size : 4.37 GiB Duration : 2h 36mn Overall bit rate : 4 002 Kbps Encoded date : UTC 2012-04-27 13:06:31 Writing application : mkvmerge v4.9.1 ('Ich will') built on Jul 11 2011 23:53:15 Writing library : libebml v1.2.1 + libmatroska v1.1.1 Video ID : 1 Format : AVC Format/Info : Advanced Video Codec Format profile : [email protected] Format settings, CABAC : Yes Format settings, ReFrames : 4 frames Codec ID : V_MPEG4/ISO/AVC Duration : 2h 36mn Bit rate : 3 552 Kbps Width : 1 280 pixels Height : 544 pixels Display aspect ratio : 2.35:1 Frame rate : 23.976 fps Color space : YUV Chroma subsampling : 4:2:0 Bit depth : 8 bits Scan type : Progressive Bits/(Pixel*Frame) : 0.213 Stream size : 3.80 GiB (87%) Writing library : x264 core 116 r2074 2641b9e Encoding settings : cabac=1 / ref=3 / deblock=1:0:0 / analyse=0x3:0x113 / me=hex / subme=7 / psy=1 / psy_rd=1.00:0.00 / mixed_ref=1 / me_range=16 / chroma_me=1 / trellis=1 / 8x8dct=1 / cqm=0 / deadzone=21,11 / fast_pskip=1 / chroma_qp_offset=-2 / threads=6 / sliced_threads=0 / nr=0 / decimate=1 / interlaced=0 / bluray_compat=0 / constrained_intra=0 / bframes=3 / b_pyramid=2 / b_adapt=1 / b_bias=0 / direct=1 / weightb=1 / open_gop=0 / weightp=2 / keyint=250 / keyint_min=23 / scenecut=40 / intra_refresh=0 / rc_lookahead=40 / rc=2pass / mbtree=1 / bitrate=3552 / ratetol=1.0 / qcomp=0.60 / qpmin=10 / qpmax=51 / qpstep=4 / cplxblur=20.0 / qblur=0.5 / ip_ratio=1.40 / aq=1:1.00 Language : English Audio ID : 2 Format : AC-3 Format/Info : Audio Coding 3 Mode extension : CM (complete main) Codec ID : A_AC3 Duration : 2h 36mn Bit rate mode : Constant Bit rate : 448 Kbps Channel(s) : 6 channels Channel positions : Front: L C R, Side: L R, LFE Sampling rate : 48.0 KHz Bit depth : 16 bits Compression mode : Lossy Delay relative to video : 16ms Stream size : 501 MiB (11%)
    Credits To :- Team BWTV

    Uploaded By :- Team SD




    Filefactory Links:

    Code:
    http://www.filefactory.com/file/2vxn71lpcz7t/n/Agent.720P.DvdRip.X264.AC3.ESubs.By.Team.SD.mkv.001
    http://www.filefactory.com/file/4m0du5il88uh/n/Agent.720P.DvdRip.X264.AC3.ESubs.By.Team.SD.mkv.002
    http://www.filefactory.com/file/4n6xlx1dw0ff/n/Agent.720P.DvdRip.X264.AC3.ESubs.By.Team.SD.mkv.003
    http://www.filefactory.com/file/5b1qns4500yt/n/Agent.720P.DvdRip.X264.AC3.ESubs.By.Team.SD.mkv.004
    http://www.filefactory.com/file/3y0l7jt2mh9x/n/Agent.720P.DvdRip.X264.AC3.ESubs.By.Team.SD.mkv.005
    
    SUBS:
    http://www.filefactory.com/file/59tjme01muaf/n/Agent.720P.DvdRip.X264.AC3.ESubs.By.Team.SD.srt
    Letitbit Links:

    Code:
    http://letitbit.net/download/59712.5a1472071e18eb34ef73db9282ce/Agent.720P.DvdRip.X264.AC3.ESubs.By.Team.SD.mkv.001.html
    http://letitbit.net/download/89643.88f86a0a83ba1012c5af9ca3532b/Agent.720P.DvdRip.X264.AC3.ESubs.By.Team.SD.mkv.002.html
    http://letitbit.net/download/07471.0bca4d79b90bdbbb24f6ef3b3bf1/Agent.720P.DvdRip.X264.AC3.ESubs.By.Team.SD.mkv.003.html
    http://letitbit.net/download/16097.19f8cf34689765e7d3af0133f2e2/Agent.720P.DvdRip.X264.AC3.ESubs.By.Team.SD.mkv.004.html
    http://letitbit.net/download/89153.8768e09aebbcf540a53a9a2cdcf5/Agent.720P.DvdRip.X264.AC3.ESubs.By.Team.SD.mkv.005.html
    
    Subs:
    http://letitbit.net/download/66882.65fd22dcc87d22fc21d951dcc8ad/Agent.720P.DvdRip.X264.AC3.ESubs.By.Team.SD.srt.html

    All Links are InterChangeable
    Join them using HJ Split


  2. #2

    Default

    links are down...please reload letitbit links.....

 

 

Posting Permissions

  • You may not post new threads
  • You may not post replies
  • You may not post attachments
  • You may not edit your posts
  •