Results 1 to 1 of 1
  1. #1

    Arrow Agent Vinod (2012) - 1/3Dvd - DVDRip - XviD - AC3 - ESubs [Team BWTV]

    Follow us on Social Media






    Code:
    General
    Complete name: AV.2012.2CD.DVD.XviD-By.SC.avi
    Format : AVI
    Format/Info: Audio Video Interleave
    File size: 1.45 GiB
    Duration : 2h 36mn
    Overall bit rate : 1 326 Kbps
    Writing library: VirtualDub build 32661/release
    
    Video
    ID : 0
    Format : MPEG-4 Visual
    Format profile : Advanced [email protected]
    Format settings, BVOP: 2
    Format settings, QPel: Yes
    Format settings, GMC : No warppoints
    Format settings, Matrix: Default (H.263)
    Codec ID : XVID
    Codec ID/Hint: XviD
    Duration : 2h 36mn
    Bit rate : 997 Kbps
    Width: 640 pixels
    Height : 272 pixels
    Display aspect ratio : 2.35:1
    Frame rate : 23.976 fps
    Color space: YUV
    Chroma subsampling : 4:2:0
    Bit depth: 8 bits
    Scan type: Progressive
    Compression mode : Lossy
    Bits/(Pixel*Frame) : 0.239
    Stream size: 1.09 GiB (75%)
    Writing library: XviD 1.2.1 (UTC 2008-12-04)
    
    Audio
    ID : 1
    Format : AC-3
    Format/Info: Audio Coding 3
    Mode extension : CM (complete main)
    Codec ID : 2000
    Duration : 2h 36mn
    Bit rate mode: Constant
    Bit rate : 320 Kbps
    Channel(s) : 6 channels
    Channel positions: Front: L C R, Side: L R, LFE
    Sampling rate: 48.0 KHz
    Bit depth: 16 bits
    Compression mode : Lossy
    Stream size: 358 MiB (24%)
    Alignment: Aligned on interleaves
    Interleave, duration : 42 ms (1.00 video frame)
    Interleave, preload duration : 512 ms






    Credits To Team BWTV
    Uploader :: Team SD



    Single Links::


    If You Are Going To Download Then You Will Get Slow Speed When Downloaded as a Free User Go And Buy A Premium Account From These Links Below And Enjoy The Full Fledged Speed From The Respective File Host......


    Code:
    http://www.filefactory.com/file/6axsfj69nib3/n/AGVD.2Cd.DvdRip.XviD.AC3.ESubs.By.Team.SD.avi
    Or

    Code:
    http://turbobit.net/esqbo4zn28bd/AGVD.2Cd.DvdRip.XviD.AC3.ESubs.By.Team.SD.avi.html
    Or

    Code:
    http://rapidgator.net/file/8535799/AGVD.2Cd.DvdRip.XviD.AC3.ESubs.By.Team.SD.avi.html
    Subs::

    Code:
    http://fiberupload.com/s6v8ao6kzfej/AGVD.2Cd.DvdRip.XviD.AC3.ESubs.By.Team.SD.srt
    Or

    Code:
    http://www.filefactory.com/file/2rsan670a5rv/n/AGVD.2Cd.DvdRip.XviD.AC3.ESubs.By.Team.SD.srt


    As Uploaders We Strive Hard To Get And Upload the Stuff to Respective FileHosts..

    It is not Easy To Upload a File to filehosts

    We Thnx All Rippers and source providers for providing us stuff

    We Do HardWork for Uploading Stuff And You Will Get Benefit from the uploaded Stuff

    I Just Need you to Tell me A Simple Thanks In The Comment Box Below If You Had really Downloaded the file and got benefit from It

    It Does Not Affect You But Inturn it Increases Your Post Count And Also Popularity In The Forum

    Note : The Particular Content Is Not My Own Content, Got From the Net...Am Just Sharing Here...If Any Prob It Will Be Removed !






 

 

Posting Permissions

  • You may not post new threads
  • You may not post replies
  • You may not post attachments
  • You may not edit your posts
  •