Results 1 to 1 of 1
  1. #1
    praneeth2010
    Guest

    Cool Agent Vinod (2012) - 1/3DvdRip - XviD - AC3 - ESubs - Team BWTV

    Follow us on Social Media











    General
    Complete name: AV.2012.2CD.DVD.XviD-By.SC.avi
    Format : AVI
    Format/Info: Audio Video Interleave
    File size: 1.45 GiB
    Duration : 2h 36mn
    Overall bit rate : 1 326 Kbps
    Writing library: VirtualDub build 32661/release

    Video
    ID : 0
    Format : MPEG-4 Visual
    Format profile : Advanced [email protected]
    Format settings, BVOP: 2
    Format settings, QPel: Yes
    Format settings, GMC : No warppoints
    Format settings, Matrix: Default (H.263)
    Codec ID : XVID
    Codec ID/Hint: XviD
    Duration : 2h 36mn
    Bit rate : 997 Kbps
    Width: 640 pixels
    Height : 272 pixels
    Display aspect ratio : 2.35:1
    Frame rate : 23.976 fps
    Color space: YUV
    Chroma subsampling : 4:2:0
    Bit depth: 8 bits
    Scan type: Progressive
    Compression mode : Lossy
    Bits/(Pixel*Frame) : 0.239
    Stream size: 1.09 GiB (75%)
    Writing library: XviD 1.2.1 (UTC 2008-12-04)

    Audio
    ID : 1
    Format : AC-3
    Format/Info: Audio Coding 3
    Mode extension : CM (complete main)
    Codec ID : 2000
    Duration : 2h 36mn
    Bit rate mode: Constant
    Bit rate : 320 Kbps
    Channel(s) : 6 channels
    Channel positions: Front: L C R, Side: L R, LFE
    Sampling rate: 48.0 KHz
    Bit depth: 16 bits
    Compression mode : Lossy
    Stream size: 358 MiB (24%)
    Alignment: Aligned on interleaves
    Interleave, duration : 42 ms (1.00 video frame)
    Interleave, preload duration : 512 ms
    Credits To :- Team BWTV

    Uploaded By :- Team SD



    Code:
    http://www.filefactory.com/file/2x4gr1ncbmm3/n/AGVD.2Cd.DvdRip.XviD.AC3.ESubs.By.Team.SD.avi
    
    http://letitbit.net/download/02810.0819b77facff0f6949c05e8968ac/AGVD.2Cd.DvdRip.XviD.AC3.ESubs.By.Team.SD.avi.html
    
    http://extabit.com/file/29gx5hdmb876u/>AGVD.2Cd.DvdRip.XviD.AC3.ESubs.By.Team.SD.avi
    
    http://turbobit.net/v3kjyalsuqfp/AGVD.2Cd.DvdRip.XviD.AC3.ESubs.By.Team.SD.avi.html

    ESubs:
    Code:
    http://www.filefactory.com/file/qyojio8ec2f/n/AGVD.2Cd.DvdRip.XviD.AC3.ESubs.By.Team.SD.srt

    Improtant Note :-

    No Duty Is More Urgent Than That Of Returning Thanks To Keep Topic Alive.

    SayinG THANKS & Comments For Some One's EFFORT Is A GooD Habit.



 

 

Posting Permissions

  • You may not post new threads
  • You may not post replies
  • You may not post attachments
  • You may not edit your posts
  •