Results 1 to 1 of 1
  1. #1
    Hot Member www.desirulez.net
    Join Date
    Dec 2011
    Posts
    559

    Cool Agent Vinod (2012) - 1/3DVD - DVDRip - XviD - AC3 - ESubs - [Team BWTV]

    Follow us on Social Media







    Code:
    General
    Complete name: AV.2012.2CD.DVD.XviD-By.SC.avi
    Format : AVI
    Format/Info: Audio Video Interleave
    File size: 1.45 GiB
    Duration : 2h 36mn
    Overall bit rate : 1 326 Kbps
    Writing library: VirtualDub build 32661/release
    
    Video
    ID : 0
    Format : MPEG-4 Visual
    Format profile : Advanced [email protected]
    Format settings, BVOP: 2
    Format settings, QPel: Yes
    Format settings, GMC : No warppoints
    Format settings, Matrix: Default (H.263)
    Codec ID : XVID
    Codec ID/Hint: XviD
    Duration : 2h 36mn
    Bit rate : 997 Kbps
    Width: 640 pixels
    Height : 272 pixels
    Display aspect ratio : 2.35:1
    Frame rate : 23.976 fps
    Color space: YUV
    Chroma subsampling : 4:2:0
    Bit depth: 8 bits
    Scan type: Progressive
    Compression mode : Lossy
    Bits/(Pixel*Frame) : 0.239
    Stream size: 1.09 GiB (75%)
    Writing library: XviD 1.2.1 (UTC 2008-12-04)
    
    Audio
    ID : 1
    Format : AC-3
    Format/Info: Audio Coding 3
    Mode extension : CM (complete main)
    Codec ID : 2000
    Duration : 2h 36mn
    Bit rate mode: Constant
    Bit rate : 320 Kbps
    Channel(s) : 6 channels
    Channel positions: Front: L C R, Side: L R, LFE
    Sampling rate: 48.0 KHz
    Bit depth: 16 bits
    Compression mode : Lossy
    Stream size: 358 MiB (24%)
    Alignment: Aligned on interleaves
    Interleave, duration : 42 ms (1.00 video frame)
    Interleave, preload duration : 512 ms








    Single Links:-

    Code:
    http://www.filefactory.com/file/zgztr3iihyj/n/AV.2012.2CD.DVD.XviD-By.SC.avi
    Or
    http://extabit.com/file/27amhzixn5sgi/AV.2012.2CD.DVD.XviD-By.SC.avi
    Or
    http://www.netload.in/dateiaACP0ZmbZu/AV.2012.2CD.DVD.XviD-By.SC.avi.htm
    Or
    http://rapidgator.net/file/8405593/AV.2012.2CD.DVD.XviD-By.SC.avi.html
    Or
    http://turbobit.net/b56tn52gwia7/AV.2012.2CD.DVD.XviD-By.SC.avi.html
    Split Links :-



    Code:
    http://www.filefactory.com/file/6p7b6r46x5tr/n/AV.2012.2CD.DVD.XviD-By.SC.avi.001
    http://www.filefactory.com/file/5rtwet9ntalx/n/AV.2012.2CD.DVD.XviD-By.SC.avi.002
    http://www.filefactory.com/file/hd7ota86dgd/n/AV.2012.2CD.DVD.XviD-By.SC.avi.003
    http://www.filefactory.com/file/5ao3q7pjrq5t/n/AV.2012.2CD.DVD.XviD-By.SC.avi.004
    http://www.filefactory.com/file/6dy76encse77/n/AV.2012.2CD.DVD.XviD-By.SC.avi.005
    Subs:-
    http://www.filefactory.com/file/4r1tvu3e6np3/n/AV.2012.2CD.DVD.XviD-By.SC.srt


    Code:
    http://extabit.com/file/27amhzixn5m9e/AV.2012.2CD.DVD.XviD-By.SC.avi.001
    http://extabit.com/file/27amhzixn5m8y/AV.2012.2CD.DVD.XviD-By.SC.avi.002
    http://extabit.com/file/27amhzixmj1ua/AV.2012.2CD.DVD.XviD-By.SC.avi.003
    http://extabit.com/file/27amhzixn5m82/AV.2012.2CD.DVD.XviD-By.SC.avi.004
    http://extabit.com/file/27amhzixmj20i/AV.2012.2CD.DVD.XviD-By.SC.avi.005
    Subs:-
    http://extabit.com/file/27amhzixns6du/AV.2012.2CD.DVD.XviD-By.SC.srt


    Code:
    http://www.netload.in/dateiA2XDhHUNqa/AV.2012.2CD.DVD.XviD-By.SC.avi.001.htm
    http://www.netload.in/dateicvXg1RhMK4/AV.2012.2CD.DVD.XviD-By.SC.avi.002.htm
    http://www.netload.in/dateidckBpQ3UNM/AV.2012.2CD.DVD.XviD-By.SC.avi.003.htm
    http://www.netload.in/dateiGcCBdQfe0f/AV.2012.2CD.DVD.XviD-By.SC.avi.004.htm
    http://www.netload.in/dateiDgYWIBfXiv/AV.2012.2CD.DVD.XviD-By.SC.avi.005.htm
    Subs:-
    http://www.netload.in/dateiig23OyhPPq/AV.2012.2CD.DVD.XviD-By.SC.srt.htm


    Code:
    http://rapidgator.net/file/8401741/AV.2012.2CD.DVD.XviD-By.SC.avi.001.html
    http://rapidgator.net/file/8402178/AV.2012.2CD.DVD.XviD-By.SC.avi.002.html
    http://rapidgator.net/file/8401960/AV.2012.2CD.DVD.XviD-By.SC.avi.003.html
    http://rapidgator.net/file/8402396/AV.2012.2CD.DVD.XviD-By.SC.avi.004.html
    http://rapidgator.net/file/8400560/AV.2012.2CD.DVD.XviD-By.SC.avi.005.html
    Subs:-
    http://rapidgator.net/file/8400629/AV.2012.2CD.DVD.XviD-By.SC.srt.html


    Code:
    http://turbobit.net/6qqzjspkmrsi/AV.2012.2CD.DVD.XviD-By.SC.avi.001.html
    http://turbobit.net/400yk0vmfz0m/AV.2012.2CD.DVD.XviD-By.SC.avi.002.html
    http://turbobit.net/4mij0ccmbhux/AV.2012.2CD.DVD.XviD-By.SC.avi.003.html
    http://turbobit.net/i8bnacvvu2rf/AV.2012.2CD.DVD.XviD-By.SC.avi.004.html
    http://turbobit.net/mk03a16fhvhi/AV.2012.2CD.DVD.XviD-By.SC.avi.005.html
    Subs:-
    http://turbobit.net/hc6apcnaopjl/AV.2012.2CD.DVD.XviD-By.SC.srt.html

 

 

Posting Permissions

  • You may not post new threads
  • You may not post replies
  • You may not post attachments
  • You may not edit your posts
  •