Results 1 to 1 of 1
  1. #1
    dR Rockers www.desirulez.net
    Join Date
    Aug 2011
    Posts
    5,859

    Cool Agent Vinod (2012) DVD Rip Xvid AC3 Subs BWTV

    Follow us on Social Media









    Code:
    General Complete name : Agent Vinod (2012) DVD Rip Xvid AC3 Subs BWTV.avi Format : AVI Format/Info : Audio Video Interleave File size : 1.45 GiB Duration : 2h 36mn Overall bit rate : 1 326 Kbps Writing library : VirtualDub build 32661/release Video ID : 0 Format : MPEG-4 Visual Format profile : Advanced [email protected] Format settings, BVOP : 2 Format settings, QPel : Yes Format settings, GMC : No warppoints Format settings, Matrix : Default (H.263) Codec ID : XVID Codec ID/Hint : XviD Duration : 2h 36mn Bit rate : 997 Kbps Width : 640 pixels Height : 272 pixels Display aspect ratio : 2.35:1 Frame rate : 23.976 fps Color space : YUV Chroma subsampling : 4:2:0 Bit depth : 8 bits Scan type : Progressive Compression mode : Lossy Bits/(Pixel*Frame) : 0.239 Stream size : 1.09 GiB (75%) Writing library : XviD 1.2.1 (UTC 2008-12-04) Audio ID : 1 Format : AC-3 Format/Info : Audio Coding 3 Mode extension : CM (complete main) Codec ID : 2000 Duration : 2h 36mn Bit rate mode : Constant Bit rate : 320 Kbps Channel(s) : 6 channels Channel positions : Front: L C R, Side: L R, LFE Sampling rate : 48.0 KHz Bit depth : 16 bits Compression mode : Lossy Stream size : 358 MiB (24%) Alignment : Aligned on interleaves Interleave, duration : 42 ms (1.00 video frame) Interleave, preload duration : 512 ms








    Code:
    http://www.netload.in/dateiDGmKXH3kL1/Agent Vinod (2012) DVD Rip Xvid AC3 Subs BWTV.avi.htm
    

    Code:
    http://extabit.com/file/2dvl6ibm0t9fd/Agent Vinod (2012) DVD Rip Xvid AC3 Subs BWTV.avi
    http://extabit.com/file/2dvl6ibm1gp6x/Agent Vinod (2012) DVD Rip Xvid AC3 Subs BWTV.srt

 

 

Posting Permissions

  • You may not post new threads
  • You may not post replies
  • You may not post attachments
  • You may not edit your posts
  •