Results 1 to 1 of 1
  1. #1
    Landed To DesiRulez www.desirulez.net
    Join Date
    May 2009
    Posts
    11

    T

    Post Straight [2009] [1CD-DVDRiP] [Xvid-Mp3] [Version=TeamDUS(Ranger)]

    Follow us on Social Media







    Straight [2009] [1CD-DVDRiP] [Xvid-Mp3] [Version=TeamDUS(Ranger)]

























    Code:
    Uploaded By                      : shakil (The Sparkar Group)
    Format                           : AVI
    Format/Info                      : Audio Video Interleave
    Format profile                   : OpenDML
    File size                        : 690 MiB
    Duration                         : 1h 49mn
    Overall bit rate                 : 877 Kbps
    
    
    Video
    Format                           : MPEG-4 Visual
    Format settings, BVOP            : Yes
    Format settings, QPel            : Yes
    Format settings, GMC             : No warppoints
    Format settings, Matrix          : Default
    Codec ID                         : XVID
    Codec ID/Hint                    : XviD
    Duration                         : 1h 49mn
    Bit rate                         : 777 Kbps
    Width                            : 640 pixels
    Height                           : 272 pixels
    Display aspect ratio             : 2.35
    Frame rate                       : 29.970 fps
    Resolution                       : 24 bits
    Colorimetry                      : 4:2:0
    Scan type                        : Progressive
    Bits/(Pixel*Frame)               : 0.149
    Stream size                      : 611 MiB (89%)
    
    
    Audio
    Format                           : MPEG Audio
    Format version                   : Version 1
    Format profile                   : Layer 3
    Codec ID                         : 55
    Codec ID/Hint                    : MP3
    Duration                         : 1h 49mn
    Bit rate mode                    : Constant
    Bit rate                         : 96.0 Kbps
    Channel(s)                       : 2 channels
    Sampling rate                    : 44.1 KHz
    Resolution                       : 16 bits
    Stream size                      : 75.4 MiB (11%)
    
    Source:DVD @ ICT

    Rapidshare:

    Code:
    http://rapidshare.com/files/236424043/s__2009_dus-by_shakil-tsg.avi.001
    http://rapidshare.com/files/236424374/s__2009_dus-by_shakil-tsg.avi.002
    http://rapidshare.com/files/236424244/s__2009_dus-by_shakil-tsg.avi.003
    http://rapidshare.com/files/236424036/s__2009_dus-by_shakil-tsg.avi.004
    Hotfile:

    Code:
    http://hotfile.com/dl/3546550/c0ab124/s__2009_dus-by_shakil-tsg.avi.001.html
    http://hotfile.com/dl/3546571/92458c1/s__2009_dus-by_shakil-tsg.avi.002.html
    http://hotfile.com/dl/3546591/908e4ae/s__2009_dus-by_shakil-tsg.avi.003.html
    http://hotfile.com/dl/3546596/21e2ec4/s__2009_dus-by_shakil-tsg.avi.004.html
    Netload:

    Code:
    http://netload.in/dateie51ixJJrds/s__2009_dus-by_shakil-tsg.avi.001.htm
    http://netload.in/dateitFpYV9Ns2o/s__2009_dus-by_shakil-tsg.avi.002.htm
    http://netload.in/datei8yaGSkKLrZ/s__2009_dus-by_shakil-tsg.avi.003.htm
    http://netload.in/dateifiW9SKcsda/s__2009_dus-by_shakil-tsg.avi.004.htm
    Uploaded:

    Code:
    http://ul.to/rigkne/s__2009_dus-by_shakil-tsg.avi.001
    http://ul.to/wj2gm7/s__2009_dus-by_shakil-tsg.avi.002
    http://ul.to/l43ox4/s__2009_dus-by_shakil-tsg.avi.003
    http://ul.to/n0vero/s__2009_dus-by_shakil-tsg.avi.004
    Ifile -Free Resume Capable:

    Code:
    http://ifile.it/g79vnul/s__2009_dus-by_shakil-tsg.avi.001
    http://ifile.it/67xrazu/s__2009_dus-by_shakil-tsg.avi.002
    http://ifile.it/9v370s5/s__2009_dus-by_shakil-tsg.avi.003
    http://ifile.it/sj0x6af/s__2009_dus-by_shakil-tsg.avi.004
    Filezzz -Free Resume Capable:
    Code:
    http://www.filezzz.com/download/105001/s__2009_dus-by_shakil-tsg.avi.html
    Depositfiles:
    Code:
    http://depositfiles.com/files/f5vjv5nlo

 

 

Posting Permissions

  • You may not post new threads
  • You may not post replies
  • You may not post attachments
  • You may not edit your posts
  •