Results 1 to 1 of 1
  1. #1

    Wink Tera Milna Pal Do Pal Ka - Sonu Nigam - DVDRip - Xvid AC3 5.1 - Video

    Follow us on Social Media







    Tera Milna Pal Do Pal Ka - Sonu Nigam - DVDRip - Xvid AC3 5.1 - Video







    Code:
    Uploaded By      [ -* TuHiN *- (ThE SparkaR GrouP)
    
    Format                           : AVI
    Format/Info                      : Audio Video Interleave
    File size                        : 51.9 MiB
    Duration                         : 2mn 32s
    Overall bit rate                 : 2 853 Kbps
    Writing application              : VirtualDubMod 1.5.10.2 (build 2542/release)
    Writing library                  : VirtualDubMod build 2542/release
    
    Video
    Format                           : MPEG-4 Visual
    Format profile                   : Streaming [email protected]
    Format settings, BVOP            : Yes
    Format settings, QPel            : No
    Format settings, GMC             : No warppoints
    Format settings, Matrix          : Default
    Muxing mode                      : Packed bitstream
    Codec ID                         : XVID
    Codec ID/Hint                    : XviD
    Duration                         : 2mn 32s
    Bit rate                         : 2 393 Kbps
    Width                            : 624 pixels
    Height                           : 304 pixels
    Display aspect ratio             : 2.053
    Frame rate                       : 29.970 fps
    Resolution                       : 24 bits
    Colorimetry                      : 4:2:0
    Scan type                        : Progressive
    Bits/(Pixel*Frame)               : 0.421
    Stream size                      : 43.5 MiB (84%)
    Writing library                  : XviD 1.2.1 (UTC 2008-12-04)
    
    Audio
    Format                           : AC-3
    Format/Info                      : Audio Coding 3
    Codec ID                         : 2000
    Duration                         : 2mn 32s
    Bit rate mode                    : Constant
    Bit rate                         : 448 Kbps
    Channel(s)                       : 6 channels
    Channel positions                : Front: L C R, Surround: L R, LFE
    Sampling rate                    : 48.0 KHz
    Stream size                      : 8.15 MiB (16%)
    Alignment                        : Aligned on interleaves
    Interleave, duration             : 33 ms (1.00 video frame)
    Interleave, preload duration     : 512 ms
    
    
    
    All Credits Goes To original Ripper































    Rapidshare:
    Code:
    http://rapidshare.com/files/230559493/Tera_Milna_Pal_Do_Pal_Ka.By.TuhiN.TeaM.SparkaR.avi


    Uploaded.to:
    Code:
    http://ul.to/pgi5p2/Tera_Milna_Pal_Do_Pal_Ka.By.TuhiN.TeaM.SparkaR.avi


    Filefactory:
    Code:
    http://www.filefactory.com/file/aggfa7g/n/Tera_Milna_Pal_Do_Pal_Ka_By_TuhiN_TeaM_SparkaR_avi



    Hotfile:
    Code:
    http://hotfile.com/dl/1840033/c95c0f5/Tera_Milna_Pal_Do_Pal_Ka.By.TuhiN.TeaM.SparkaR.avi.html


    Depositfiles:
    Code:
    http://depositfiles.com/files/xh9lm1ptg

 

 

Posting Permissions

  • You may not post new threads
  • You may not post replies
  • You may not post attachments
  • You may not edit your posts
  •