Results 1 to 1 of 1
  1. #1

    Wink Saudagar (1991) - Tum Mujhko - DvDrip - Xvid AC3 - Music Video

    Follow us on Social Media







    Saudagar (1991) - Tum Mujhko - DvDrip - Xvid AC3 - Music Video







    Code:
    Uploaded By      [ -* TuHiN *- (ThE SparkaR GrouP)
    
    Format                           : AVI
    Format/Info                      : Audio Video Interleave
    Format profile                   : OpenDML
    File size                        : 69.8 MiB
    Duration                         : 6mn 20s
    Overall bit rate                 : 1 538 Kbps
    Writing application              : AVI-Mux GUI 1.17.7, Aug  8 2006  20:59:17
    
    Video
    Format                           : MPEG-4 Visual
    Format profile                   : Streaming [email protected]
    Format settings, BVOP            : Yes
    Format settings, QPel            : Yes
    Format settings, GMC             : No warppoints
    Format settings, Matrix          : Default (H.263)
    Codec ID                         : XVID
    Codec ID/Hint                    : XviD
    Duration                         : 6mn 20s
    Bit rate                         : 1 147 Kbps
    Width                            : 640 pixels
    Height                           : 272 pixels
    Display aspect ratio             : 2.35
    Frame rate                       : 23.976 fps
    Resolution                       : 24 bits
    Colorimetry                      : 4:2:0
    Scan type                        : Progressive
    Bits/(Pixel*Frame)               : 0.275
    Stream size                      : 52.1 MiB (75%)
    Writing library                  : XviD 1.2.1 (UTC 2008-12-04)
    
    Audio
    Format                           : AC-3
    Format/Info                      : Audio Coding 3
    Codec ID                         : 2000
    Duration                         : 6mn 20s
    Bit rate mode                    : Constant
    Bit rate                         : 384 Kbps
    Channel(s)                       : 6 channels
    Channel positions                : Front: L C R, Surround: L R, LFE
    Sampling rate                    : 48.0 KHz
    Stream size                      : 17.4 MiB (25%)
    Alignment                        : Aligned on interleaves
    Interleave, duration             : 64 ms (1.53 video frames)
    Interleave, preload duration     : 192 ms
    Title                            : Audio
    
    
    All Credits Goes To original Ripper





























    Rapidshare:
    Code:
    http://rapidshare.com/files/230559739/Tum_Mujhko_-_Saudagar.By.TuhiN.TeaM.SparkaR.avi


    Uploaded.to:
    Code:
    http://ul.to/os5k6d/Tum_Mujhko_-_Saudagar.By.TuhiN.TeaM.SparkaR.avi


    Filefactory:
    Code:
    http://www.filefactory.com/file/aggfccg/n/Tum_Mujhko_-_Saudagar_By_TuhiN_TeaM_SparkaR_avi



    Hotfile:
    Code:
    http://hotfile.com/dl/1840047/f686268/Tum_Mujhko_-_Saudagar.By.TuhiN.TeaM.SparkaR.avi.html



    Depositfiles:
    Code:
    http://depositfiles.com/files/trgtz7hz0

 

 

Posting Permissions

  • You may not post new threads
  • You may not post replies
  • You may not post attachments
  • You may not edit your posts
  •