Results 1 to 1 of 1
  1. #1
    Banned www.desirulez.net
    Join Date
    Feb 2011
    Posts
    2,003

    Default 4084 Chaalis Chaurassi(2012) - DVD Rip - Xvid - AC3 -Team BWTV

    Follow us on Social Media





    4084 Chaalis Chaurassi(2012) - DVD Rip - Xvid - AC3 -Team BWTV





    Code:
    General Complete name : 4084 Chaalis Chaurassi (2012) DVD Rip Xvid AC3 Subs BWTV\4084 Chaalis Chaurassi (2012) DVD Rip Xvid AC3 Subs BWTV.avi Format : AVI Format/Info : Audio Video Interleave File size : 1.46 GiB Duration : 1h 55mn Overall bit rate : 1 804 Kbps Writing library : VirtualDub build 32661/release Video ID : 0 Format : MPEG-4 Visual Format profile : Advanced [email protected] Format settings, BVOP : 2 Format settings, QPel : Yes Format settings, GMC : No warppoints Format settings, Matrix : Default (H.263) Codec ID : XVID Codec ID/Hint : XviD Duration : 1h 55mn Bit rate : 1 346 Kbps Width : 640 pixels Height : 288 pixels Display aspect ratio : 2.222 Frame rate : 25.000 fps Color space : YUV Chroma subsampling : 4:2:0 Bit depth : 8 bits Scan type : Progressive Compression mode : Lossy Bits/(Pixel*Frame) : 0.292 Stream size : 1.09 GiB (75%) Writing library : XviD 1.2.1 (UTC 2008-12-04) Audio ID : 1 Format : AC-3 Format/Info : Audio Coding 3 Mode extension : CM (complete main) Codec ID : 2000 Duration : 1h 55mn Bit rate mode : Constant Bit rate : 448 Kbps Channel(s) : 6 channels Channel positions : Front: L C R, Side: L R, LFE Sampling rate : 48.0 KHz Bit depth : 16 bits Compression mode : Lossy Stream size : 370 MiB (25%) Alignment : Aligned on interleaves Interleave, duration : 40 ms (1.00 video frame) Interleave, preload duration : 512 ms








    For Getting High Speed Download speeed Pls Purchase Premium From this Link And Support me By Providing More Quality Releases
    Code:
    http://extabit.com/file/27b60jm216qq0
    Code:
    http://netload.in/dateiilC9616YFT/4084_Chaalis_Chaurassi_(2012)_DVD_Rip_Xvid_AC3_Subs_BWTV.avi.001.htm
    http://netload.in/datei9m6fMG7TRS/4084_Chaalis_Chaurassi_(2012)_DVD_Rip_Xvid_AC3_Subs_BWTV.avi.002.htm
    Single Link
    Code:
    http://rapidgator.net/file/4397776/4084_Chaalis_Chaurassi_(2012)_DVD_Rip_Xvid_AC3_Subs_BWTV.avi.001.html
    http://rapidgator.net/file/4397487/4084_Chaalis_Chaurassi_(2012)_DVD_Rip_Xvid_AC3_Subs_BWTV.avi.002.html

 

 

Posting Permissions

  • You may not post new threads
  • You may not post replies
  • You may not post attachments
  • You may not edit your posts
  •