Results 1 to 1 of 1
  1. #1
    Senior Member www.desirulez.net
    Join Date
    Aug 2009
    Posts
    111

    Default Kahaani (2012) - 1/3DvdRip - XviD - AC3 - ESubs - Team BWTV

    Follow us on Social Media
















    General :
    Format : AVI
    Format/Info : Audio Video Interleave
    File size : 1.45 GiB
    Duration : 2h 2mn
    Overall bit rate : 1 689 Kbps
    Writing library : VirtualDub build 32661/release

    Video
    ID : 0
    Format : MPEG-4 Visual
    Format profile : Advanced [email protected]
    Format settings, BVOP : 2
    Format settings, QPel : Yes
    Format settings, GMC : No warppoints
    Format settings, Matrix : Default (H.263)
    Codec ID : XVID
    Codec ID/Hint : XviD
    Duration : 2h 2mn
    Bit rate : 1 232 Kbps
    Width : 640 pixels
    Height : 272 pixels
    Display aspect ratio : 2.35:1
    Frame rate : 23.976 fps
    Color space : YUV
    Chroma subsampling : 4:2:0
    Bit depth : 8 bits
    Scan type : Progressive
    Compression mode : Lossy
    Bits/(Pixel*Frame) : 0.295
    Stream size : 1.06 GiB (73%)
    Writing library : XviD 1.2.1 (UTC 2008-12-04)

    Audio
    ID : 1
    Format : AC-3
    Format/Info : Audio Coding 3
    Mode extension : CM (complete main)
    Codec ID : 2000
    Duration : 2h 2mn
    Bit rate mode : Constant
    Bit rate : 448 Kbps
    Channel(s) : 6 channels
    Channel positions : Front: L C R, Side: L R, LFE
    Sampling rate : 48.0 KHz
    Bit depth : 16 bits
    Compression mode : Lossy
    Stream size : 394 MiB (27%)
    Alignment : Aligned on interleaves
    Interleave, duration : 42 ms (1.00 video frame)
    Interleave, preload duration : 512 ms
    Credits To :- Team BWTV


    DOWNLOAD

    Code:
    http://www.filefactory.com/file/4bekenot3j91/n/Kaha.2Cd.DvdRip.XviD.AC3.ESubs.By.Team.SD.avi
    
    
    http://ul.to/ucre69tk
    If You Like My Work, then Please Purchase, Premium Account From my posted LINKS

 

 

Posting Permissions

  • You may not post new threads
  • You may not post replies
  • You may not post attachments
  • You may not edit your posts
  •