Results 1 to 1 of 1
  1. #1
    dR Rockers www.desirulez.net
    Join Date
    Aug 2011
    Posts
    5,859

    Cool Kahaani (2012) 720p Upscaled DVD Rip Xvid AC3 Subs BWTV

    Follow us on Social Media






    Code:
    General Complete name : Kahaani (2012) 720p Upscaled DVD Rip Xvid AC3 Subs BWTV\Kahaani (2012) 720p Upscaled DVD Rip Xvid AC3 Subs BWTV.mkv Format : Matroska Format version : Version 2 File size : 4.37 GiB Duration : 2h 2mn Overall bit rate : 5 090 Kbps Encoded date : UTC 2012-04-14 10:28:11 Writing application : mkvmerge v4.9.1 ('Ich will') built on Jul 11 2011 23:53:15 Writing library : libebml v1.2.1 + libmatroska v1.1.1 Video ID : 1 Format : AVC Format/Info : Advanced Video Codec Format profile : [email protected] Format settings, CABAC : Yes Format settings, ReFrames : 4 frames Codec ID : V_MPEG4/ISO/AVC Duration : 2h 2mn Bit rate : 4 647 Kbps Width : 1 280 pixels Height : 544 pixels Display aspect ratio : 2.35:1 Frame rate : 23.976 fps Color space : YUV Chroma subsampling : 4:2:0 Bit depth : 8 bits Scan type : Progressive Bits/(Pixel*Frame) : 0.278 Stream size : 3.90 GiB (89%) Writing library : x264 core 116 r2074 2641b9e Encoding settings : cabac=1 / ref=3 / deblock=1:0:0 / analyse=0x3:0x113 / me=hex / subme=7 / psy=1 / psy_rd=1.00:0.00 / mixed_ref=1 / me_range=16 / chroma_me=1 / trellis=1 / 8x8dct=1 / cqm=0 / deadzone=21,11 / fast_pskip=1 / chroma_qp_offset=-2 / threads=6 / sliced_threads=0 / nr=0 / decimate=1 / interlaced=0 / bluray_compat=0 / constrained_intra=0 / bframes=3 / b_pyramid=2 / b_adapt=1 / b_bias=0 / direct=1 / weightb=1 / open_gop=0 / weightp=2 / keyint=250 / keyint_min=23 / scenecut=40 / intra_refresh=0 / rc_lookahead=40 / rc=2pass / mbtree=1 / bitrate=4647 / ratetol=1.0 / qcomp=0.60 / qpmin=10 / qpmax=51 / qpstep=4 / cplxblur=20.0 / qblur=0.5 / ip_ratio=1.40 / aq=1:1.00 Language : English Audio ID : 2 Format : AC-3 Format/Info : Audio Coding 3 Mode extension : CM (complete main) Codec ID : A_AC3 Duration : 2h 2mn Bit rate mode : Constant Bit rate : 448 Kbps Channel(s) : 6 channels Channel positions : Front: L C R, Side: L R, LFE Sampling rate : 48.0 KHz Bit depth : 16 bits Compression mode : Lossy Stream size : 394 MiB (9%)











    1GB LINKS


    Code:
    http://www.netload.in/dateidOeNR8d0Z1/Kahaani (2012) 720p Upscaled DVD Rip Xvid AC3 Subs BWTV.mkv.001.htm
    http://www.netload.in/datei4nBP0xnxJZ/Kahaani (2012) 720p Upscaled DVD Rip Xvid AC3 Subs BWTV.mkv.002.htm
    http://www.netload.in/dateiJtjkoprHjC/Kahaani (2012) 720p Upscaled DVD Rip Xvid AC3 Subs BWTV.mkv.003.htm
    http://www.netload.in/dateiNjMJ5Jo3Le/Kahaani (2012) 720p Upscaled DVD Rip Xvid AC3 Subs BWTV.mkv.004.htm
    http://www.netload.in/dateiIqXdrkfNUW/Kahaani (2012) 720p Upscaled DVD Rip Xvid AC3 Subs BWTV.mkv.005.htm
    http://www.netload.in/dateiU7lQfopBej/Kahaani (2012) 720p Upscaled DVD Rip Xvid AC3 Subs BWTV.mkv.006.htm
    http://www.netload.in/datei4yTo9nyKq4/Kahaani (2012) 720p Upscaled DVD Rip Xvid AC3 Subs BWTV.mkv.007.htm
    http://www.netload.in/dateiHsxl8rwj8P/Kahaani (2012) 720p Upscaled DVD Rip Xvid AC3 Subs BWTV.srt.htm
    Code:
    http://ul.to/jo1bn993/Kahaani (2012) 720p Upscaled DVD Rip Xvid AC3 Subs BWTV.mkv.001
    http://ul.to/jo3sh7j6/Kahaani (2012) 720p Upscaled DVD Rip Xvid AC3 Subs BWTV.mkv.002
    http://ul.to/hdoe5qob/Kahaani (2012) 720p Upscaled DVD Rip Xvid AC3 Subs BWTV.mkv.003
    http://ul.to/6hc3lh0y/Kahaani (2012) 720p Upscaled DVD Rip Xvid AC3 Subs BWTV.mkv.004
    http://ul.to/ns6r10sk/Kahaani (2012) 720p Upscaled DVD Rip Xvid AC3 Subs BWTV.mkv.005
    http://ul.to/jd717gnb/Kahaani (2012) 720p Upscaled DVD Rip Xvid AC3 Subs BWTV.mkv.006
    http://ul.to/9exwv1eu/Kahaani (2012) 720p Upscaled DVD Rip Xvid AC3 Subs BWTV.mkv.007
    http://ul.to/pm5jrm57/Kahaani (2012) 720p Upscaled DVD Rip Xvid AC3 Subs BWTV.srt

 

 

Posting Permissions

  • You may not post new threads
  • You may not post replies
  • You may not post attachments
  • You may not edit your posts
  •