Results 1 to 1 of 1
  1. #1
    Banned www.desirulez.net
    Join Date
    Feb 2011
    Posts
    2,003

    Default Kahani(2012) - 1/3DVD RIP - Xvid - AC3(5.1) - Team BCTV

    Follow us on Social Media





    Kahani(2012) - 1/3DVD RIP - Xvid - AC3(5.1) - Team BCTV



    Code:
    General :
    Format : AVI
    Format/Info : Audio Video Interleave
    File size : 1.45 GiB
    Duration : 2h 2mn
    Overall bit rate : 1 689 Kbps
    Writing library : VirtualDub build 32661/release
    
    Video
    ID : 0
    Format : MPEG-4 Visual
    Format profile : Advanced [email protected]
    Format settings, BVOP : 2
    Format settings, QPel : Yes
    Format settings, GMC : No warppoints
    Format settings, Matrix : Default (H.263)
    Codec ID : XVID
    Codec ID/Hint : XviD
    Duration : 2h 2mn
    Bit rate : 1 232 Kbps
    Width : 640 pixels
    Height : 272 pixels
    Display aspect ratio : 2.35:1
    Frame rate : 23.976 fps
    Color space : YUV
    Chroma subsampling : 4:2:0
    Bit depth : 8 bits
    Scan type : Progressive
    Compression mode : Lossy
    Bits/(Pixel*Frame) : 0.295
    Stream size : 1.06 GiB (73%)
    Writing library : XviD 1.2.1 (UTC 2008-12-04)
    
    Audio
    ID : 1
    Format : AC-3
    Format/Info : Audio Coding 3
    Mode extension : CM (complete main)
    Codec ID : 2000
    Duration : 2h 2mn
    Bit rate mode : Constant
    Bit rate : 448 Kbps
    Channel(s) : 6 channels
    Channel positions : Front: L C R, Side: L R, LFE
    Sampling rate : 48.0 KHz
    Bit depth : 16 bits
    Compression mode : Lossy
    Stream size : 394 MiB (27%)
    Alignment : Aligned on interleaves
    Interleave, duration : 42 ms (1.00 video frame)
    Interleave, preload duration : 512 ms











    For Getting High Speed Download speeed Pls Purchase Premium From this Link And Support me By Providing More Quality Releases
    Code:
    http://extabit.com/file/27b60jmx295xz
    Single Link
    Code:
    http://rapidgator.net/file/4150563/Kaha.2Cd.DvdRip.XviD.AC3.avi.001.html
    http://rapidgator.net/file/4152235/Kaha.2Cd.DvdRip.XviD.AC3.avi.002.html
    Code:
    http://filegag.com/w6e4rli9qwvn/Kaha.2Cd.DvdRip.XviD.AC3.avi.001.html
    http://filegag.com/ga94cqf78qit/Kaha.2Cd.DvdRip.XviD.AC3.avi.002.html

 

 

Posting Permissions

  • You may not post new threads
  • You may not post replies
  • You may not post attachments
  • You may not edit your posts
  •