Results 1 to 1 of 1
  1. #1
    Banned www.desirulez.net
    Join Date
    Feb 2011
    Posts
    2,003

    Default Kaahani(2012) - 1CD - DVD RIP - Xvid - Mp3[Team BCTV]

    Follow us on Social Media





    Kaahani(2012) - 1CD - DVD RIP - Xvid - Mp3[Team BCTV]



    Code:
    General :
    Format : AVI
    Format/Info : Audio Video Interleave
    File size : 696 MiB
    Duration : 2h 2mn
    Overall bit rate : 792 Kbps
    Writing library : VirtualDub build 32661/release
    
    Video
    ID : 0
    Format : MPEG-4 Visual
    Format profile : Advanced [email protected]
    Format settings, BVOP : 2
    Format settings, QPel : Yes
    Format settings, GMC : No warppoints
    Format settings, Matrix : Default (H.263)
    Codec ID : XVID
    Codec ID/Hint : XviD
    Duration : 2h 2mn
    Bit rate : 655 Kbps
    Width : 608 pixels
    Height : 256 pixels
    Display aspect ratio : 2.40:1
    Frame rate : 23.976 fps
    Color space : YUV
    Chroma subsampling : 4:2:0
    Bit depth : 8 bits
    Scan type : Progressive
    Compression mode : Lossy
    Bits/(Pixel*Frame) : 0.175
    Stream size : 575 MiB (83%)
    Writing library : XviD 1.2.1 (UTC 2008-12-04)
    
    Audio
    ID : 1
    Format : MPEG Audio
    Format version : Version 1
    Format profile : Layer 3
    Mode : Joint stereo
    Mode extension : MS Stereo
    Codec ID : 55
    Codec ID/Hint : MP3
    Duration : 2h 2mn
    Bit rate mode : Constant
    Bit rate : 128 Kbps
    Channel(s) : 2 channels
    Sampling rate : 48.0 KHz
    Compression mode : Lossy
    Stream size : 112 MiB (16%)
    Alignment : Split accross interleaves
    Interleave, duration : 42 ms (1.00 video frame)
    Interleave, preload duration : 500 ms
    Writing library : LAME3.99r
    Encoding settings : -m j -V 4 -q 2 -lowpass 17 -b 128










    For Getting High Speed Download speeed Pls Purchase Premium From this Link And Support me By Providing More Quality Releases
    Single Link
    Code:
    http://filegag.com/8pymzwl4hdmw/Kahaani_(2012)_1CD_DVD_Rip_Xvid_MP3.avi.html
    
    http://letitbit.net/download/15966.16901bcce4258efd3c8f2b0d4544/Kahaani__282012_29_1CD_DVD_Rip_Xvid_MP3.avi.html
    
    http://rapidgator.net/file/4143256/Kahaani_(2012)_1CD_DVD_Rip_Xvid_MP3.avi.html

 

 

Posting Permissions

  • You may not post new threads
  • You may not post replies
  • You may not post attachments
  • You may not edit your posts
  •