Results 1 to 4 of 4
  1. #1
    dR Contributor www.desirulez.net
    Join Date
    Jun 2010
    Location
    India
    Posts
    2,470

    Red face Dangerous Isshq (Theatrical Trailer) ft Karishma Kapoor

    Follow us on Social Media








    Format : AVI
    Format/Info : Audio Video Interleave
    File size : 16.0 MiB
    Duration : 2mn 0s
    Overall bit rate : 1 112 Kbps

    Video
    ID : 0
    Format : MPEG-4 Visual
    Format profile : Advanced [email protected]
    Format settings, BVOP : 2
    Format settings, QPel : No
    Format settings, GMC : No warppoints
    Format settings, Matrix : Default (H.263)
    Codec ID : XVID
    Codec ID/Hint : XviD
    Duration : 2mn 0s
    Bit rate : 944 Kbps
    Width : 640 pixels
    Height : 272 pixels
    Display aspect ratio : 2.35:1
    Frame rate : 25.000 fps
    Color space : YUV
    Chroma subsampling : 4:2:0
    Bit depth : 8 bits
    Scan type : Progressive
    Compression mode : Lossy
    Bits/(Pixel*Frame) : 0.217
    Stream size : 13.6 MiB (85%)
    Writing library : XviD 1.2.1 (UTC 2008-12-04)

    Audio
    ID : 1
    Format : MPEG Audio
    Format version : Version 1
    Format profile : Layer 3
    Mode : Joint stereo
    Mode extension : MS Stereo
    Codec ID : 55
    Codec ID/Hint : MP3
    Duration : 2mn 0s
    Bit rate mode : Constant
    Bit rate : 80.0 Kbps
    Channel(s) : 2 channels
    Sampling rate : 32.0 KHz
    Compression mode : Lossy
    Stream size : 1.15 MiB (7%)
    Alignment : Aligned on interleaves
    Interleave, duration : 160 ms (4.00 video frames)
    Interleave, preload duration : 216 ms
    Title
    Writing library : LAME3.99r
    Encoding settings : -m j -V 4 -q 2 -lowpass 13.5 -b 80
    Watch Online



    Download Link

    http://www.mediafire.com/?o3a168b6b3um0wc

    request download ticket | Dangerous.Isshq.Theatrical.Trailer-DesiRulez.Net-ashu.avi - ifile.it

    http://rapidshare.com/files/38103973...z.Net-ashu.avi

    Last edited by Ash; 04-06-2012 at 12:03 PM.

  2. #2
    Hot Member www.desirulez.net
    Join Date
    Feb 2011
    Posts
    5,056

    Default

    thanks bro

  3. #3
    Hot Member www.desirulez.net
    Join Date
    Feb 2011
    Location
    Home
    Posts
    4,705

    Default

    Thx 4 Sharing Btw - The Movie Looks Quite Boring

    edit :- http://www.desirulez.net/showthread.php?t=554743

  4. #4
    Hot Member www.desirulez.net
    Join Date
    Feb 2011
    Posts
    5,056

    Default

    Quote Originally Posted by dR boi View Post
    Thx 4 Sharing Btw - The Movie Looks Quite Boring
    Music are very good

 

 

Posting Permissions

  • You may not post new threads
  • You may not post replies
  • You may not post attachments
  • You may not edit your posts
  •