Results 1 to 1 of 1
  1. #1
    shawn rebecca
    Guest

    Default wwe wrestlemania 28 hdtv the rock vs john cena main event shawnrebecca

    Follow us on Social Media





    wwe wrestlemania 28 hdtv the rock vs john cena main event shawnrebecca


    General
    Format : MPEG-4
    Format profile : Base Media
    Codec ID : isom
    File size : 638 MiB
    Duration : 54mn 4s
    Overall bit rate : 1 650 Kbps

    Video

    Format settings, ReFrames : 4 frames
    Duration : 54mn 4s
    Bit rate : 1 456 Kbps
    Width : 704 pixels
    Height : 400 pixels
    Display aspect ratio : 16:9
    Frame rate : 29.970 fps
    Stream size : 563 MiB (88%)

    Audio
    Format : AAC
    Format/Info : Advanced Audio Codec
    Duration : 54mn 4s
    Bit rate : 192 Kbps
    Channel(s) : 2 channels
    Stream size : 73.2 MiB (11%)
    1 LiNK DownLOAD

    Code:
    http://filemates.com/rvxfpev2e4tx/wwe_wrestlemania_28_hdtv_the_rock_vs_john_cena_main_event_shawnrebecca.m4v
    Code:
    http://www.filefactory.com/file/3nwb6c9xy9hr/n/wwe_wrestlemania_28_hdtv_the_rock_vs_john_cena_main_event_shawnrebecca_m4v
    Code:
    http://ul.to/154abcqv/wwe_wrestlemania_28_hdtv_the_rock_vs_john_cena_main_event_shawnrebecca.m4v


 

 

Posting Permissions

  • You may not post new threads
  • You may not post replies
  • You may not post attachments
  • You may not edit your posts
  •