Results 1 to 1 of 1
  1. #1
    shawn rebecca
    Guest

    Default wwe wrestlemania 28 HDTV triple h vs the undertaker hell in a cell

    Follow us on Social Media





    wwe wrestlemania 28 HDTV triple h vs the undertaker hell in a cell


    Format : MPEG-4
    Format profile : Base Media
    Codec ID : isom
    File size : 663 MiB
    Duration : 55mn 43s

    Video
    Format : AVC
    Format profile : [email protected]
    Format settings, ReFrames : 4 frames
    Duration : 55mn 43s
    Bit rate : 1 470 Kbps
    Width : 704 pixels
    Height : 400 pixels
    Display aspect ratio : 16:9
    Frame rate : 29.970 fps
    Scan type : Progressive
    Stream size : 586 MiB (88%)

    Audio
    Format : AAC
    Duration : 55mn 43s
    Bit rate : 192 Kbps
    Channel(s) : 2 channels
    Stream size : 75.5 MiB (11%)
    1 LiNK DownLOAD

    Code:
    http://filemates.com/tlqb476r05e5/wwe_wrestlemania_28_HDTV_triple_h_vs_the_undertaker_hell_in_a_cell.m4v
    Code:
    http://www.filefactory.com/file/lst2dy6hyfh/n/wwe_wrestlemania_28_HDTV_triple_h_vs_the_undertaker_hell_in_a_cell.m4v
    Code:
    http://ul.to/bqx152v1/wwe wrestlemania 28 HDTV triple h vs the undertaker hell in a cell.m4v


 

 

Posting Permissions

  • You may not post new threads
  • You may not post replies
  • You may not post attachments
  • You may not edit your posts
  •