Results 1 to 1 of 1
  1. #1
    dR Rockers www.desirulez.net
    Join Date
    Aug 2011
    Posts
    5,859

    Cool Agent Vinod (2012) 2CD XViD *Custom DVDScr* 6Chnls AC3 -=Shonna=-

    Follow us on Social Media







    Format : AVI
    Format/Info : Audio Video Interleave
    File size : 1.37 GiB
    Duration : 2h 31mn
    Overall bit rate : 1 293 Kbps
    Writing application : VirtualDubMod 1.5.10.2 (build 2542/release)
    Writing library : VirtualDubMod build 2542/release

    Video
    ID : 0
    Format : MPEG-4 Visual
    Format profile : Advanced [email protected]
    Format settings, BVOP : 2
    Format settings, QPel : Yes
    Format settings, GMC : No warppoints
    Format settings, Matrix : Default (MPEG)
    Codec ID : XVID
    Codec ID/Hint : XviD
    Duration : 2h 31mn
    Bit rate : 1 060 Kbps
    Width : 640 pixels
    Height : 304 pixels
    Display aspect ratio : 2.2:1
    Frame rate : 23.976 fps
    Color space : YUV
    Chroma subsampling : 4:2:0
    Bit depth : 8 bits
    Scan type : Progressive
    Compression mode : Lossy
    Bits/(Pixel*Frame) : 0.227
    Stream size : 1.12 GiB (82%)
    Writing library : XviD 1.2.1 (UTC 2008-12-04)

    Audio
    ID : 1
    Format : AC-3
    Format/Info : Audio Coding 3
    Mode extension : CM (complete main)
    Codec ID : 2000
    Duration : 2h 31mn
    Bit rate mode : Constant
    Bit rate : 224 Kbps
    Channel(s) : 6 channels
    Channel positions : Front: L C R, Side: L R, LFE
    Sampling rate : 48.0 KHz
    Bit depth : 16 bits
    Compression mode : Lossy
    Stream size : 242 MiB (17%)
    Alignment : Split accross interleaves
    Interleave, duration : 42 ms (1.00 video frame)
    Interleave, preload duration : 500 ms

    Ripper : Shonna(Team ExD)
    Source : Custom DVD Scr(Team ExD)
    Runtime : 2hrs 31min 20Sec
    Subtitles : English, Arabic, Dutch, French, German, Italian, Portugese, Spanish












    Code:
    http://www.netload.in/dateiytxTOxAKMQ/Agent Vinod (2012) 2CD Team ExD -=Shonna=-.avi.htm
    Code:
    http://extabit.com/file/2dvktxt0que8a/Agent Vinod (2012) 2CD Team ExD -=Shonna=-.avi

 

 

Posting Permissions

  • You may not post new threads
  • You may not post replies
  • You may not post attachments
  • You may not edit your posts
  •