Results 1 to 1 of 1
  1. #1
    dR Rockers www.desirulez.net
    Join Date
    Aug 2011
    Posts
    5,859

    Cool London Paris Newyork (2012) -720p - DVD-Rip - x264 - Untouched AC3 Dolby 5.1 - daman

    Follow us on Social Media





    ----daman143m----


    London Paris Newyork (2012)(720p x264)(Untouched)(AC3 Dolby 5.1)DVD-Rip

    Source :- DVD9 By Kartik Bhai
    Ripper :- daman143m

    NO WATERMARKS IN THIS MOVIE
    ..........Here Goes The Screenshots & Info.........






    Code:
    Format                                   : Matroska
    Format version                           : Version 2
    File size                                : 3.41 GiB
    Duration                                 : 2h 1mn
    Overall bit rate mode                    : Variable
    Overall bit rate                         : 4 017 Kbps
    Movie name                               : London Paris Newyork (2012)(720p)(Untouched)(Dolby 5
    Encoded date                             : UTC 2012-03-29 01:07:01
    Writing application                      : mkvmerge v5.4.0 ('Piper') built on Mar 10 2012 13:34:39
    Writing library                          : libebml v1.2.3 + libmatroska v1.3.0
    
    Video
    ID                                       : 1
    Format                                   : AVC
    Format/Info                              : Advanced Video Codec
    Format profile                           : [email protected]
    Format settings, CABAC                   : Yes
    Format settings, ReFrames                : 3 frames
    Muxing mode                              : Header stripping
    Codec ID                                 : V_MPEG4/ISO/AVC
    Duration                                 : 2h 1mn
    Bit rate mode                            : Variable
    Bit rate                                 : 3 572 Kbps
    Maximum bit rate                         : 25.0 Mbps
    Width                                    : 1 280 pixels
    Height                                   : 544 pixels
    Display aspect ratio                     : 2.35:1
    Frame rate                               : 25.000 fps
    Color space                              : YUV
    Chroma subsampling                       : 4:2:0
    Bit depth                                : 8 bits
    Scan type                                : Progressive
    Bits/(Pixel*Frame)                       : 0.205
    Stream size                              : 2.96 GiB (87%)
    Writing library                          : x264 core 120 r2120 0c7dab9
    Encoding settings                        : cabac=1 / ref=3 /  deblock=1:0:0 / analyse=0x3:0x113 / me=hex / subme=7 / psy=1 /  psy_rd=1.00:0.00 / mixed_ref=1 / me_range=16 / chroma_me=1 / trellis=1 /  8x8dct=1 / cqm=0 / deadzone=21,11 / fast_pskip=1 / chroma_qp_offset=-2 /  threads=6 / sliced_threads=0 / nr=0 / decimate=1 / interlaced=0 /  bluray_compat=0 / constrained_intra=0 / bframes=3 / b_pyramid=0 /  b_adapt=1 / b_bias=0 / direct=1 / weightb=1 / open_gop=0 / weightp=2 /  keyint=250 / keyint_min=25 / scenecut=40 / intra_refresh=0 /  rc_lookahead=40 / rc=2pass / mbtree=1 / bitrate=3572 / ratetol=1.0 /  qcomp=0.60 / qpmin=0 / qpmax=69 / qpstep=4 / cplxblur=20.0 / qblur=0.5 /  vbv_maxrate=25000 / vbv_bufsize=25000 / nal_hrd=vbr / ip_ratio=1.40 /  aq=1:1.00
    Default                                  : Yes
    Forced                                   : No
    
    Audio
    ID                                       : 2
    Format                                   : AC-3
    Format/Info                              : Audio Coding 3
    Mode extension                           : CM (complete main)
    Muxing mode                              : Header stripping
    Codec ID                                 : A_AC3
    Duration                                 : 2h 1mn
    Bit rate mode                            : Constant
    Bit rate                                 : 448 Kbps
    Channel(s)                               : 6 channels
    Channel positions                        : Front: L C R, Side: L R, LFE
    Sampling rate                            : 48.0 KHz
    Bit depth                                : 16 bits
    Compression mode                         : Lossy
    Stream size                              : 389 MiB (11%)
    Language                                 : Hindi
    Default                                  : Yes
    Forced                                   : No


    SINGLE LINK


    Code:
    http://extabit.com/file/2dvktzkryz3k0/London Paris Newyork (2012)(720p)(Untouched)(Dolby 5.1)DVD-Rip--daman143m--.mkv



    SPLLITED LINKS



    Code:
    http://www.netload.in/datei964k3w3s7J/London Paris Newyork (2012)(720p)(Untouched)(Dolby 5.1)DVD-Rip--daman143m--.mkv.001.htm
    http://www.netload.in/dateieHK7wdGlJj/London Paris Newyork (2012)(720p)(Untouched)(Dolby 5.1)DVD-Rip--daman143m--.mkv.002.htm
    http://www.netload.in/dateinfQs9KiM4G/London Paris Newyork (2012)(720p)(Untouched)(Dolby 5.1)DVD-Rip--daman143m--.mkv.003.htm
    http://www.netload.in/dateiIpkglTfW38/London Paris Newyork (2012)(720p)(Untouched)(Dolby 5.1)DVD-Rip--daman143m--.mkv.004.htm
    http://www.netload.in/dateiTXCP3bVxkS/London Paris Newyork (2012)(720p)(Untouched)(Dolby 5.1)DVD-Rip--daman143m--.mkv.005.htm

    Code:
    http://extabit.com/file/2dvktzlvylhn4/London Paris Newyork (2012)(720p)(Untouched)(Dolby 5.1)DVD-Rip--daman143m--.mkv.001
    http://extabit.com/file/2dvktzlvxyr4w/London Paris Newyork (2012)(720p)(Untouched)(Dolby 5.1)DVD-Rip--daman143m--.mkv.002
    http://extabit.com/file/2dvktzlvylnwg/London Paris Newyork (2012)(720p)(Untouched)(Dolby 5.1)DVD-Rip--daman143m--.mkv.003
    http://extabit.com/file/2dvktzlvylef4/London Paris Newyork (2012)(720p)(Untouched)(Dolby 5.1)DVD-Rip--daman143m--.mkv.004
    http://extabit.com/file/2dvktzlvylub4/London Paris Newyork (2012)(720p)(Untouched)(Dolby 5.1)DVD-Rip--daman143m--.mkv.005

 

 

Posting Permissions

  • You may not post new threads
  • You may not post replies
  • You may not post attachments
  • You may not edit your posts
  •