Results 1 to 1 of 1
  1. #1
    Hot Member www.desirulez.net
    Join Date
    Sep 2009
    Posts
    1,215

    Thumbs up Rowdy Rathore (2012) Theatrical Trailer *Akki-Sonakshi*

    Follow us on Social Media








    Code:
    Note : Audio of trailer is bit low , As the trailer quality wasnt upto the beacuse of leakage , Real HD Quality on Monday :D
    Format                         : AVI
    Format/Info                    : Audio Video Interleave
    File size                      : 25.6 MiB
    Duration                       : 2mn 20s
    Overall bit rate               : 1 531 Kbps
    
    Video
    ID                             : 0
    Format                         : MPEG-4 Visual
    Format profile                 : Advanced [email protected]
    Format settings, BVOP          : 2
    Format settings, QPel          : No
    Format settings, GMC           : No warppoints
    Format settings, Matrix        : Default (H.263)
    Codec ID                       : XVID
    Codec ID/Hint                  : XviD
    Duration                       : 2mn 20s
    Bit rate                       : 1 461 Kbps
    Width                          : 640 pixels
    Height                         : 272 pixels
    Display aspect ratio           : 2.35:1
    Frame rate                     : 25.000 fps
    Color space                    : YUV
    Chroma subsampling             : 4:2:0
    Bit depth                      : 8 bits
    Scan type                      : Progressive
    Compression mode               : Lossy
    Bits/(Pixel*Frame)             : 0.336
    Stream size                    : 24.4 MiB (95%)
    Writing library                : XviD 1.2.1 (UTC 2008-12-04)
    
    Audio
    ID                             : 1
    Format                         : MPEG Audio
    Format version                 : Version 2
    Format profile                 : Layer 3
    Mode                           : Joint stereo
    Codec ID                       : 55
    Codec ID/Hint                  : MP3
    Duration                       : 2mn 20s
    Bit rate mode                  : Constant
    Bit rate                       : 64.0 Kbps
    Channel(s)                     : 2 channels
    Sampling rate                  : 24.0 KHz
    Compression mode               : Lossy
    Stream size                    : 1.07 MiB (4%)
    Alignment                      : Aligned on interleaves
    Interleave, duration           : 160 ms (4.00 video frames)
    Interleave, preload duration   : 216 ms
    Title                          : videoplayback.FLV_track_1_
    Writing library                : LAME3.99r
    Encoding settings              : -m j -V 4 -q 2 -lowpass 11 -b 64





    Code:
    http://ul.to/2egemtgj
    Code:
    http://rapidgator.net/file/1760326/Rowdy_Rathore_(2012)_Theatrical_Trailer_.avi.html
    Code:
    http://depositfiles.com/files/1etsh3f1l
    Code:
    http://www.filejungle.com/f/avgqBr/Rowdy Rathore (2012) Theatrical Trailer .avi



 

 

Posting Permissions

  • You may not post new threads
  • You may not post replies
  • You may not post attachments
  • You may not edit your posts
  •