Results 1 to 1 of 1
  1. #1
    Hot Member www.desirulez.net
    Join Date
    Feb 2011
    Location
    Bulletproof IP
    Posts
    1,189

    Default Agent Vinod (2012) - *Custom DVDScr* - 2CD - XviD - 6Ch - AC3 - MSubs - [Team ExD]

    Follow us on Social Media





    Agent Vinod (2012)
    *Custom DVDScr* - 2CD - XviD
    6Ch - AC3 - MSubs - [Team ExD]




    Format : AVI
    Format/Info : Audio Video Interleave
    File size : 1.37 GiB
    Duration : 2h 31mn
    Overall bit rate : 1 293 Kbps
    Writing application : VirtualDubMod 1.5.10.2 (build 2542/release)
    Writing library : VirtualDubMod build 2542/release

    Video
    ID : 0
    Format : MPEG-4 Visual
    Format profile : Advanced [email protected]
    Format settings, BVOP : 2
    Format settings, QPel : Yes
    Format settings, GMC : No warppoints
    Format settings, Matrix : Default (MPEG)
    Codec ID : XVID
    Codec ID/Hint : XviD
    Duration : 2h 31mn
    Bit rate : 1 060 Kbps
    Width : 640 pixels
    Height : 304 pixels
    Display aspect ratio : 2.2:1
    Frame rate : 23.976 fps
    Color space : YUV
    Chroma subsampling : 4:2:0
    Bit depth : 8 bits
    Scan type : Progressive
    Compression mode : Lossy
    Bits/(Pixel*Frame) : 0.227
    Stream size : 1.12 GiB (82%)
    Writing library : XviD 1.2.1 (UTC 2008-12-04)

    Audio
    ID : 1
    Format : AC-3
    Format/Info : Audio Coding 3
    Mode extension : CM (complete main)
    Codec ID : 2000
    Duration : 2h 31mn
    Bit rate mode : Constant
    Bit rate : 224 Kbps
    Channel(s) : 6 channels
    Channel positions : Front: L C R, Side: L R, LFE
    Sampling rate : 48.0 KHz
    Bit depth : 16 bits
    Compression mode : Lossy
    Stream size : 242 MiB (17%)
    Alignment : Split accross interleaves
    Interleave, duration : 42 ms (1.00 video frame)
    Interleave, preload duration : 500 ms

    Ripper : Shonna(Team ExD)
    Source : Custom DVD Scr(Team ExD)
    Runtime : 2hrs 31min 20Sec
    Subtitles : English, Arabic, Dutch, French, German, Italian, Portugese, Spanish















    All Credits Goes To Shonna @ Team ExD (Thanks)

    Single File (Size: 1.37 GB)

    Code:
    http://turbobit.net/nim09xic5xrv/AV2012_-_CustomDVDScr-2CD-XviD-6Ch-AC3-TeamExD.avi.html
    or
    http://extabit.com/file/27a2sldybdwy6/AV2012_-_CustomDVDScr-2CD-XviD-6Ch-AC3-TeamExD.avi
    Split Files (Size: 700MB + 699MB)

    Code:
    http://turbobit.net/ruym2b21dskp/AV2012_-_CustomDVDScr-2CD-XviD-6Ch-AC3-TeamExD.avi.001.html
    http://turbobit.net/lpq8mxk40xv3/AV2012_-_CustomDVDScr-2CD-XviD-6Ch-AC3-TeamExD.avi.002.html
    or
    http://extabit.com/file/27a2sldty1p5q/AV2012_-_CustomDVDScr-2CD-XviD-6Ch-AC3-TeamExD.avi.001
    http://extabit.com/file/27a2sldy8vxhq/AV2012_-_CustomDVDScr-2CD-XviD-6Ch-AC3-TeamExD.avi.002
    Subtitles

    Code:
    http://turbobit.net/5uwotsyvio8t/AV2012_-_CustomDVDScr-2CD-XviD-6Ch-AC3-TeamExD.zip.html
    or
    http://extabit.com/file/27a2sldtuarf2/AV2012_-_CustomDVDScr-2CD-XviD-6Ch-AC3-TeamExD.zip
    Re-upload Service is [ON] for 15 days

 

 

Posting Permissions

  • You may not post new threads
  • You may not post replies
  • You may not post attachments
  • You may not edit your posts
  •