Results 1 to 1 of 1
  1. #1
    dR Rockers www.desirulez.net
    Join Date
    Aug 2011
    Posts
    5,859

    Cool Ghost - 2012 - Upscaled DVDRip - 720p - X264 - AC3 5.1 - DrC - [D!D]

    Follow us on Social Media





    Ghost - 2012 - Upscaled DVDRip - 720p - x264 - AC3 5.1 - DrC - [D!D]




    Rip Specs :


    Code:
    General Format : Matroska Format version : Version 2 File size : 2.00 GiB Duration : 1h 54mn Overall bit rate mode : Variable Overall bit rate : 2 504 Kbps Video Format : AVC Format/Info : Advanced Video Codec Format profile : [email protected] Format settings, CABAC : Yes Format settings, ReFrames : 3 frames Codec ID : V_MPEG4/ISO/AVC Duration : 1h 54mn Bit rate mode : Variable Bit rate : 2 054 Kbps Maximum bit rate : 40.0 Mbps Width : 1 280 pixels Height : 544 pixels Display aspect ratio : 2.35:1 Frame rate : 23.976 fps Color space : YUV Chroma subsampling : 4:2:0 Bit depth : 8 bits Scan type : Progressive Bits/(Pixel*Frame) : 0.123 Stream size : 1.60 GiB (80%) Audio Format : AC-3 Format/Info : Audio Coding 3 Mode extension : CM (complete main) Codec ID : A_AC3 Duration : 1h 54mn Bit rate mode : Constant Bit rate : 448 Kbps Channel(s) : 6 channels Channel positions : Front: L C R, Side: L R, LFE Sampling rate : 48.0 KHz Bit depth : 16 bits Compression mode : Lossy Stream size : 366 MiB (18%) Text ID : 3 Format : VobSub Muxing mode : zlib Codec ID : S_VOBSUB Codec ID/Info : The same subtitle format used on DVDs

    Screenshots























    Enjoy the HQ Rip by D!D @ DrC
    Don't forget to leave your reply.
    DrC - Always with you !



    SINGLE LINK
    Code:
    http://extabit.com/file/2dvktp2ovwhkh/Ghost - 2012 - Upscaled DVDRip - 720p - x264 - AC3 5.1 - DrC - [D!D].mkv
    500MB LIINKS


    Code:
    http://www.netload.in/datei831JVy0anR/Ghost - 2012 - Upscaled DVDRip - 720p - x264 - AC3 5.1 - DrC - [D!D].mkv.005.htm
    http://www.netload.in/dateiKa8modCOjg/Ghost - 2012 - Upscaled DVDRip - 720p - x264 - AC3 5.1 - DrC - [D!D].mkv.004.htm
    http://www.netload.in/dateihNJawQXxFC/Ghost - 2012 - Upscaled DVDRip - 720p - x264 - AC3 5.1 - DrC - [D!D].mkv.003.htm
    http://www.netload.in/dateimlpfLTppGN/Ghost - 2012 - Upscaled DVDRip - 720p - x264 - AC3 5.1 - DrC - [D!D].mkv.002.htm
    http://www.netload.in/dateiZbyQoJydFT/Ghost - 2012 - Upscaled DVDRip - 720p - x264 - AC3 5.1 - DrC - [D!D].mkv.001.htm

    Code:
    http://extabit.com/file/2dvktp2g1i5xt/Ghost - 2012 - Upscaled DVDRip - 720p - x264 - AC3 5.1 - DrC - [D!D].mkv.001
    http://extabit.com/file/2dvktpxehuesx/Ghost - 2012 - Upscaled DVDRip - 720p - x264 - AC3 5.1 - DrC - [D!D].mkv.002
    http://extabit.com/file/2dvktpxehuept/Ghost - 2012 - Upscaled DVDRip - 720p - x264 - AC3 5.1 - DrC - [D!D].mkv.003
    http://extabit.com/file/2dvktpxehul1d/Ghost - 2012 - Upscaled DVDRip - 720p - x264 - AC3 5.1 - DrC - [D!D].mkv.004
    http://extabit.com/file/2dvktpxedh6a9/Ghost - 2012 - Upscaled DVDRip - 720p - x264 - AC3 5.1 - DrC - [D!D].mkv.005

 

 

Posting Permissions

  • You may not post new threads
  • You may not post replies
  • You may not post attachments
  • You may not edit your posts
  •