Results 1 to 1 of 1
  1. #1
    praneeth2010
    Guest

    Cool Zindagi Tere Naam (2012) 1Cd DvdScrRip XviD MP3 [Team DUS]

    Follow us on Social Media

















    General
    Source : Mine @ DUS [ ]
    Format : AVI
    Format/Info : Audio Video Interleave
    File size : 693 MiB
    Duration : 2h 0mn
    Overall bit rate : 802 Kbps

    Video
    ID : 0
    Format : MPEG-4 Visual
    Format profile : Advanced [email protected]
    Format settings, BVOP : 2
    Format settings, QPel : No
    Format settings, GMC : No warppoints
    Format settings, Matrix : Default (H.263)
    Codec ID : XVID
    Codec ID/Hint : XviD
    Duration : 2h 0mn
    Bit rate : 700 Kbps
    Width : 672 pixels
    Height : 288 pixels
    Display aspect ratio : 2.35:1
    Frame rate : 25.000 fps
    Color space : YUV
    Chroma subsampling : 4:2:0
    Bit depth : 8 bits
    Scan type : Progressive
    Compression mode : Lossy
    Bits/(Pixel*Frame) : 0.145
    Stream size : 605 MiB (87%)
    Writing library : XviD 1.2.1 (UTC 2008-12-04)

    Audio
    ID : 1
    Format : MPEG Audio
    Format version : Version 1
    Format profile : Layer 3
    Mode : Joint stereo
    Mode extension : MS Stereo
    Codec ID : 55
    Codec ID/Hint : MP3
    Duration : 2h 0mn
    Bit rate mode : Constant
    Bit rate : 96.0 Kbps
    Channel(s) : 2 channels
    Sampling rate : 32.0 KHz
    Compression mode : Lossy
    Stream size : 83.0 MiB (12%)
    Alignment : Aligned on interleaves
    Interleave, duration : 160 ms (4.00 video frames)
    Interleave, preload duration : 216 ms
    Title : videoplayback
    Writing library : LAME3.99r
    Encoding settings : -m j -V 4 -q 2 -lowpass 15.1 -b 96
    Credits To :- DUS

    Uploaded By :- Team SD



    Code:
    http://www.filefactory.com/file/c40571b/n/ZTNM.1Cd.DvdScrRip.XviD.MP3.By.Team.SD.avi
    
    http://www.cloudcache.cc/0s5qba61yqql.html
    
    http://fooget.com/ybfxaqg2pz58.html
    
    http://extabit.com/file/29gwz2pjibz8a/ZTNM.1Cd.DvdScrRip.XviD.MP3.By.Team.SD.avi
    
    http://ul.to/dj6jqpva

    Improtant Note :-

    No Duty Is More Urgent Than That Of Returning Thanks To Keep Topic Alive.

    SayinG THANKS & Comments For Some One's EFFORT Is A GooD Habit.



 

 

Posting Permissions

  • You may not post new threads
  • You may not post replies
  • You may not post attachments
  • You may not edit your posts
  •