Results 1 to 1 of 1
  1. #1
    dR Contributor www.desirulez.net
    Join Date
    Jan 2011
    Posts
    2,299

    Smile Ek Main Aur Ekk Tu (2012) - 1/5 DvdScr - Xvid - AC3 - [TDT]

    Follow us on Social Media








    General
    Complete name : Ek Main Aur Ekk Tu (2012) - Xvid - DvdScrRip - AC3 - E-Subs - [TDT].avi
    Format : AVI
    File size : 896 MiB
    Duration : 1h 46mn
    Overall bit rate : 1 171 Kbps
    Source : DvDScr @ Team ICTV.
    Ripper : KINGFISHER [~TDT~].


    Video

    Muxing mode : Packed bitstream
    Codec ID : XVID
    Duration : 1h 46mn
    Bit rate : 1 034 Kbps
    Width : 688 pixels
    Height : 272 pixels
    Display aspect ratio : 2.529
    Frame rate : 23.976 fps
    Color space : YUV
    Scan type : Progressive
    Bits/(Pixel*Frame) : 0.230
    Stream size : 790 MiB (88%)

    Audio
    Format : AC-3
    Duration : 1h 46mn
    Bit rate mode : Constant
    Bit rate : 128 Kbps
    Channel(s) : 2 channels
    Sampling rate : 48.0 KHz
    Stream size : 97.9 MiB (11%)







    Credits to "TDT"



    Ek_Main_Aur_Ek_Tu_DVDScr_Xvid_AC3_TDT.avi download Extabit.com - file hosting

    OR

    FreakShare - Easy One-Click File Hosting


 

 

Posting Permissions

  • You may not post new threads
  • You may not post replies
  • You may not post attachments
  • You may not edit your posts
  •