Results 1 to 1 of 1
  1. #1
    Hot Member www.desirulez.net
    Join Date
    Dec 2011
    Posts
    559

    Cool Kahaani (2012) - UNTOUCHED - SCAM - 580MB - MPEG - [Team AF]

    Follow us on Social Media







    Code:
    General
    Complete name: Kahaani.2012.SCAM.MPG.600MB-SC.MPG
    Format : MPEG-PS
    File size: 587 MiB
    Duration : 1h 41mn
    Overall bit rate mode: Variable
    Overall bit rate : 812 Kbps
    
    Video
    ID : 224 (0xE0)
    Format : MPEG Video
    Format version : Version 2
    Format profile : [email protected]
    Format settings, BVOP: Yes
    Format settings, Matrix: Default
    Format settings, GOP : M=3, N=12
    Duration : 1h 41mn
    Bit rate mode: Variable
    Bit rate : 668 Kbps
    Maximum bit rate : 650 Kbps
    Width: 352 pixels
    Height : 288 pixels
    Display aspect ratio : 4:3
    Frame rate : 25.000 fps
    Standard : PAL
    Color space: YUV
    Chroma subsampling : 4:2:0
    Bit depth: 8 bits
    Scan type: Progressive
    Compression mode : Lossy
    Bits/(Pixel*Frame) : 0.263
    Stream size: 483 MiB (82%)
    
    Audio
    ID : 192 (0xC0)
    Format : MPEG Audio
    Format version : Version 1
    Format profile : Layer 2
    Duration : 1h 41mn
    Bit rate mode: Constant
    Bit rate : 128 Kbps
    Channel(s) : 2 channels
    Sampling rate: 44.1 KHz
    Compression mode : Lossy
    Stream size: 92.5 MiB (16%)









    Single Links:-

    Code:
    http://www.filefactory.com/file/c39612b/n/Kahaani.2012.SCAM.MPG.600MB-SC.MPG
    Or
    http://turbobit.net/woj5ra9d53gx/Kahaani.2012.SCAM.MPG.600MB-SC.MPG.html
    Or
    http://file4sharing.com/q47jsm9dfpzc/Kahaani.2012.SCAM.MPG.600MB-SC.MPG.html
    Or
    http://ul.to/p3nd1x1v/Kahaani.2012.SCAM.MPG.600MB-SC.MPG

 

 

Posting Permissions

  • You may not post new threads
  • You may not post replies
  • You may not post attachments
  • You may not edit your posts
  •