Results 1 to 1 of 1
  1. #1
    Hot Member www.desirulez.net
    Join Date
    Dec 2011
    Posts
    559

    Cool Virodhi (2011) - DVD - Rip - X264 - MP3 - 1CD - ESubs - [Team Legends]

    Follow us on Social Media







    Code:
    General
    Unique ID: 251225492658783691010403623569423386898 (0xBD004518DABCD9CCA8FEC3A4A93CC912)
    Complete name: Virodhi.2011.DVD.X264.MP3.1CD-SC.mkv
    Format : Matroska
    Format version : Version 2
    File size: 698 MiB
    Duration : 2h 30mn
    Overall bit rate : 649 Kbps
    Encoded date : UTC 2012-03-02 12:37:43
    Writing application: mkvmerge v5.2.1 ('A Far Off Place') built on Jan2 2012 23:21:10
    Writing library: libebml v1.2.3 + libmatroska v1.3.0
    
    Video
    ID : 1
    Format : AVC
    Format/Info: Advanced Video Codec
    Format profile : [email protected]
    Format settings, CABAC : Yes
    Format settings, ReFrames: 4 frames
    Codec ID : V_MPEG4/ISO/AVC
    Duration : 2h 30mn
    Bit rate : 588 Kbps
    Nominal bit rate : 739 Kbps
    Width: 624 pixels
    Height : 272 pixels
    Display aspect ratio : 2.25:1
    Frame rate : 29.970 fps
    Color space: YUV
    Chroma subsampling : 4:2:0
    Bit depth: 8 bits
    Scan type: Progressive
    Bits/(Pixel*Frame) : 0.116
    Stream size: 632 MiB (91%)
    Writing library: x264 core 120 r2164 da19765
    Encoding settings: cabac=1 / ref=3 / deblock=1:0:0 / analyse=0x3:0x111 / me=hex / subme=6 / psy=1 / psy_rd=1.00:0.00 / mixed_ref=1 / me_range=16 / chroma_me=1 / trellis=1 / 8x8dct=1 / cqm=0 / deadzone=21,11 / fast_pskip=1 / chroma_qp_offset=-2 / threads=6 / sliced_threads=0 / nr=0 / decimate=1 / interlaced=0 / bluray_compat=0 / constrained_intra=0 / bframes=3 / b_pyramid=2 / b_adapt=1 / b_bias=0 / direct=1 / weightb=1 / open_gop=0 / weightp=2 / keyint=300 / keyint_min=29 / scenecut=40 / intra_refresh=0 / rc=2pass / mbtree=0 / bitrate=739 / ratetol=1.0 / qcomp=0.60 / qpmin=10 / qpmax=51 / qpstep=4 / cplxblur=20.0 / qblur=0.5 / ip_ratio=1.40 / pb_ratio=1.30 / aq=1:1.00
    Language : English
    Default: Yes
    Forced : No
    
    Audio
    ID : 2
    Format : MPEG Audio
    Format version : Version 2
    Format profile : Layer 3
    Mode : Joint stereo
    Mode extension : MS Stereo
    Codec ID : A_MPEG/L3
    Codec ID/Hint: MP3
    Duration : 2h 30mn
    Bit rate mode: Constant
    Bit rate : 48.0 Kbps
    Channel(s) : 2 channels
    Sampling rate: 22.05 KHz
    Compression mode : Lossy
    Stream size: 51.6 MiB (7%)
    Writing library: LAME3.99.4UUUUUULAME
    Default: Yes
    Forced : No
    
    Text
    ID : 3
    Format : UTF-8
    Codec ID : S_TEXT/UTF8
    Codec ID/Info: UTF-8 Plain Text
    Default: Yes
    Forced : No










    Credits To :- TZ Ripper @ Team Legends



    Single Links:-

    Code:
    http://www.filefactory.com/file/c367dd6/n/Virodhi.2011.DVD.X264.MP3.1CD-SC.mkv
    Or
    http://fooget.com/4t9h5km0zbbp.html/Virodhi.2011.DVD.X264.MP3.1CD-SC.mkv
    Or
    http://filevelocity.com/mkwr5bmgf79d/Virodhi.2011.DVD.X264.MP3.1CD-SC.mkv
    Or
    http://file4sharing.com/1czblbge2mfi/Virodhi.2011.DVD.X264.MP3.1CD-SC.mkv.html
    Or
    http://turbobit.net/5o279aw4dcpm/Virodhi.2011.DVD.X264.MP3.1CD-SC.mkv.html
    Split Links :-



    Code:
    http://www.filefactory.com/file/c367eda/n/Virodhi.2011.DVD.X264.MP3.1CD-SC.mkv.001
    http://www.filefactory.com/file/c367dda/n/Virodhi.2011.DVD.X264.MP3.1CD-SC.mkv.002
    http://www.filefactory.com/file/c367dc9/n/Virodhi.2011.DVD.X264.MP3.1CD-SC.mkv.003
    http://www.filefactory.com/file/c367dec/n/Virodhi.2011.DVD.X264.MP3.1CD-SC.mkv.004
    Subs:-
    http://www.filefactory.com/file/c3670d0/n/Virodhi.2011.DVD.X264.MP3.1CD-SC.rar


    Code:
    http://file4sharing.com/z7nh9h3hse13/Virodhi.2011.DVD.X264.MP3.1CD-SC.mkv.001.html
    http://file4sharing.com/v2wvk59by2qn/Virodhi.2011.DVD.X264.MP3.1CD-SC.mkv.002.html
    http://file4sharing.com/15r843jo3ffs/Virodhi.2011.DVD.X264.MP3.1CD-SC.mkv.003.html
    http://file4sharing.com/g0prkpzb573d/Virodhi.2011.DVD.X264.MP3.1CD-SC.mkv.004.html
    Subs:-
    http://file4sharing.com/hxahd2dttnyk/Virodhi.2011.DVD.X264.MP3.1CD-SC.rar.html


    Code:
    http://fooget.com/sm319ae3ryv7.html/Virodhi.2011.DVD.X264.MP3.1CD-SC.mkv.001
    http://fooget.com/q9h0j89fnd8q.html/Virodhi.2011.DVD.X264.MP3.1CD-SC.mkv.002
    http://fooget.com/grp4l5zjt5oi.html/Virodhi.2011.DVD.X264.MP3.1CD-SC.mkv.003
    http://fooget.com/s3z83wj6cnin.html/Virodhi.2011.DVD.X264.MP3.1CD-SC.mkv.004
    Subs:-
    http://fooget.com/q9ld3rooyv2x.html/Virodhi.2011.DVD.X264.MP3.1CD-SC.rar


    Code:
    http://turbobit.net/opswvpc9skpy/Virodhi.2011.DVD.X264.MP3.1CD-SC.mkv.001.html
    http://turbobit.net/95j4dnxjycub/Virodhi.2011.DVD.X264.MP3.1CD-SC.mkv.002.html
    http://turbobit.net/90peia7pk25s/Virodhi.2011.DVD.X264.MP3.1CD-SC.mkv.003.html
    http://turbobit.net/2tf8uiqc4djd/Virodhi.2011.DVD.X264.MP3.1CD-SC.mkv.004.html
    Subs:-
    http://turbobit.net/n8hg4ulw3h3m/Virodhi.2011.DVD.X264.MP3.1CD-SC.rar.html


    Code:
    http://ul.to/o3it3eau/Virodhi.2011.DVD.X264.MP3.1CD-SC.mkv.001
    http://ul.to/kynv1gqr/Virodhi.2011.DVD.X264.MP3.1CD-SC.mkv.002
    http://ul.to/nciyiqcw/Virodhi.2011.DVD.X264.MP3.1CD-SC.mkv.003
    http://ul.to/x8fq9k4p/Virodhi.2011.DVD.X264.MP3.1CD-SC.mkv.004
    Subs:-
    http://ul.to/70k0y3r6/Virodhi.2011.DVD.X264.MP3.1CD-SC.rar

 

 

Posting Permissions

  • You may not post new threads
  • You may not post replies
  • You may not post attachments
  • You may not edit your posts
  •