Results 1 to 1 of 1
  1. #1

    Thumbs up Don 2 (2011) - DVD5 - MHCE - DD 5.1 - ESubs - [xDM]

    Follow us on Social Media





    This is non-retail (leaked) DVD release


    Format : MPEG-PS
    File size : 246 MiB
    Duration : 8mn 37s
    Overall bit rate mode : Variable
    Overall bit rate : 3 978 Kbps

    Video
    ID : 224 (0xE0)
    Format : MPEG Video
    Format version : Version 2
    Format profile : [email protected]
    Format settings, BVOP : Yes
    Format settings, Matrix : Custom
    Format settings, GOP : M=2, N=12
    Duration : 8mn 37s
    Bit rate mode : Variable
    Bit rate : 3 482 Kbps
    Maximum bit rate : 9 000 Kbps
    Width : 720 pixels
    Height : 576 pixels
    Display aspect ratio : 4:3
    Frame rate : 25.000 fps
    Standard : PAL
    Color space : YUV
    Chroma subsampling : 4:2:0
    Bit depth : 8 bits
    Scan type : Interlaced
    Scan order : Top Field First
    Compression mode : Lossy
    Bits/(Pixel*Frame) : 0.336
    Stream size : 215 MiB (88%)

    Audio #1
    ID : 189 (0xBD)-128 (0x80)
    Format : AC-3
    Format/Info : Audio Coding 3
    Mode extension : CM (complete main)
    Muxing mode : DVD-Video
    Duration : 8mn 37s
    Bit rate mode : Constant
    Bit rate : 192 Kbps
    Channel(s) : 2 channels
    Channel positions : Front: L R
    Sampling rate : 48.0 KHz
    Bit depth : 16 bits
    Compression mode : Lossy
    Delay relative to video : -296ms
    Stream size : 11.9 MiB (5%)

    Audio #2
    ID : 189 (0xBD)-129 (0x81)
    Format : AC-3
    Format/Info : Audio Coding 3
    Mode extension : CM (complete main)
    Muxing mode : DVD-Video
    Duration : 8mn 37s
    Bit rate mode : Constant
    Bit rate : 224 Kbps
    Channel(s) : 6 channels
    Channel positions : Front: L C R, Side: L R, LFE
    Sampling rate : 48.0 KHz
    Bit depth : 16 bits
    Compression mode : Lossy
    Delay relative to video : -360ms
    Stream size : 13.8 MiB (6%)












    700MB Parts | INTERCHANGEABLE LINKS | NO PASSWORD


    Code:
    http://www.netload.in/dateizmhvGJ5f5Z/AMP-Don.2.2011.DVD5.MHCE.Eubs.xDM.part1.rar.htm
    http://www.netload.in/dateiKMiMPRBbSe/AMP-Don.2.2011.DVD5.MHCE.Eubs.xDM.part2.rar.htm
    http://www.netload.in/dateiZ2Ui3ClSuE/AMP-Don.2.2011.DVD5.MHCE.Eubs.xDM.part3.rar.htm
    http://www.netload.in/dateiEYjGc6Ict1/AMP-Don.2.2011.DVD5.MHCE.Eubs.xDM.part4.rar.htm
    http://www.netload.in/dateiwo8JlCmoJh/AMP-Don.2.2011.DVD5.MHCE.Eubs.xDM.part5.rar.htm
    http://www.netload.in/dateiEJFpDwmxzK/AMP-Don.2.2011.DVD5.MHCE.Eubs.xDM.part6.rar.htm
    http://www.netload.in/dateicHqgck6K5t/AMP-Don.2.2011.DVD5.MHCE.Eubs.xDM.part7.rar.htm

    Code:
    http://ul.to/pqrgb32i/AMP-Don.2.2011.DVD5.MHCE.Eubs.xDM.part1.rar
    http://ul.to/iid1h8y2/AMP-Don.2.2011.DVD5.MHCE.Eubs.xDM.part2.rar
    http://ul.to/t5o4j2lk/AMP-Don.2.2011.DVD5.MHCE.Eubs.xDM.part3.rar
    http://ul.to/imx3x680/AMP-Don.2.2011.DVD5.MHCE.Eubs.xDM.part4.rar
    http://ul.to/y4qyt981/AMP-Don.2.2011.DVD5.MHCE.Eubs.xDM.part5.rar
    http://ul.to/e3q13j7y/AMP-Don.2.2011.DVD5.MHCE.Eubs.xDM.part6.rar
    http://ul.to/0r938pam/AMP-Don.2.2011.DVD5.MHCE.Eubs.xDM.part7.rar
    Man is still the most extraordinary computer of all.




 

 

Posting Permissions

  • You may not post new threads
  • You may not post replies
  • You may not post attachments
  • You may not edit your posts
  •