Results 1 to 1 of 1
  1. #1
    Hot Member www.desirulez.net
    Join Date
    Dec 2011
    Posts
    559

    T

    Cool Mouna Guru (2011) - Lotus - DVD - Rip - XviD - MP3 - 1CD - [Team IST]

    Follow us on Social Media









    Code:
    General
    Complete name: Mouna.Guru.2011.Lotus.DVD.XviD.1CD-SC.avi
    Format : AVI
    Format/Info: Audio Video Interleave
    File size: 708 MiB
    Duration : 2h 29mn
    Overall bit rate : 662 Kbps
    
    Video
    ID : 0
    Format : MPEG-4 Visual
    Format profile : Advanced [email protected]
    Format settings, BVOP: 2
    Format settings, QPel: No
    Format settings, GMC : No warppoints
    Format settings, Matrix: Default (H.263)
    Codec ID : XVID
    Codec ID/Hint: XviD
    Duration : 2h 29mn
    Bit rate : 574 Kbps
    Width: 608 pixels
    Height : 256 pixels
    Display aspect ratio : 2.40:1
    Frame rate : 29.970 fps
    Color space: YUV
    Chroma subsampling : 4:2:0
    Bit depth: 8 bits
    Scan type: Progressive
    Compression mode : Lossy
    Bits/(Pixel*Frame) : 0.123
    Stream size: 615 MiB (87%)
    Writing library: XviD 1.2.1 (UTC 2008-12-04)
    
    Audio
    ID : 1
    Format : MPEG Audio
    Format version : Version 1
    Format profile : Layer 3
    Mode : Joint stereo
    Mode extension : MS Stereo
    Codec ID : 55
    Codec ID/Hint: MP3
    Duration : 2h 29mn
    Bit rate mode: Constant
    Bit rate : 80.0 Kbps
    Channel(s) : 2 channels
    Sampling rate: 44.1 KHz
    Compression mode : Lossy
    Stream size: 85.6 MiB (12%)
    Alignment: Aligned on interleaves
    Interleave, duration : 134 ms (4.00 video frames)
    Interleave, preload duration : 209 ms
    Title: manua T80 2_0ch 320Kbps DELAY 0ms
    Writing library: LAME3.98.2







    Credits To Team IST

    Single Links:-

    Code:
    http://file4sharing.com/jznj2enx20n5/Mouna.Guru.2011.Lotus.DVD.XviD.1CD-SC.avi.html
    Or
    http://www.filefactory.com/file/c3f902f/n/Mouna.Guru.2011.Lotus.DVD.XviD.1CD-SC.avi
    Or
    http://extabit.com/file/2daxsozh1riqg/Mouna.Guru.2011.Lotus.DVD.XviD.1CD-SC.avi
    Or
    http://turbobit.net/cewzed0xq7am/Mouna.Guru.2011.Lotus.DVD.XviD.1CD-SC.avi.html
    Split Links :-

    File4sharing Links:-

    Code:
    http://file4sharing.com/qpm68ugirmyo/Mouna.Guru.2011.Lotus.DVD.XviD.1CD-SC.avi.001.html
    http://file4sharing.com/d742zhsq7jk8/Mouna.Guru.2011.Lotus.DVD.XviD.1CD-SC.avi.002.html
    http://file4sharing.com/zje5fajx67cl/Mouna.Guru.2011.Lotus.DVD.XviD.1CD-SC.avi.003.html
    http://file4sharing.com/9mprjoxtsdyz/Mouna.Guru.2011.Lotus.DVD.XviD.1CD-SC.avi.004.html
    Filefactory Links:-

    Code:
    http://www.filefactory.com/file/c3f9013/n/Mouna.Guru.2011.Lotus.DVD.XviD.1CD-SC.avi.001
    http://www.filefactory.com/file/c3f9011/n/Mouna.Guru.2011.Lotus.DVD.XviD.1CD-SC.avi.002
    http://www.filefactory.com/file/c3f9017/n/Mouna.Guru.2011.Lotus.DVD.XviD.1CD-SC.avi.003
    http://www.filefactory.com/file/c3f9025/n/Mouna.Guru.2011.Lotus.DVD.XviD.1CD-SC.avi.004
    Extabit Links:-

    Code:
    http://extabit.com/file/2daxsozh1rlso/Mouna.Guru.2011.Lotus.DVD.XviD.1CD-SC.avi.001
    http://extabit.com/file/2daxsozh4adrc/Mouna.Guru.2011.Lotus.DVD.XviD.1CD-SC.avi.002
    http://extabit.com/file/2daxsozh4a49k/Mouna.Guru.2011.Lotus.DVD.XviD.1CD-SC.avi.003
    http://extabit.com/file/2daxsozh4adrs/Mouna.Guru.2011.Lotus.DVD.XviD.1CD-SC.avi.004
    Turbobit Links:

    Code:
    http://turbobit.net/e5uoq0hof2m7/Mouna.Guru.2011.Lotus.DVD.XviD.1CD-SC.avi.001.html
    http://turbobit.net/exhgpms56c3j/Mouna.Guru.2011.Lotus.DVD.XviD.1CD-SC.avi.002.html
    http://turbobit.net/fycqpcrxyy27/Mouna.Guru.2011.Lotus.DVD.XviD.1CD-SC.avi.003.html
    http://turbobit.net/dkl0wqczvv69/Mouna.Guru.2011.Lotus.DVD.XviD.1CD-SC.avi.004.html

 

 

Posting Permissions

  • You may not post new threads
  • You may not post replies
  • You may not post attachments
  • You may not edit your posts
  •