Results 1 to 1 of 1
  1. #1
    Hot Member www.desirulez.net
    Join Date
    Dec 2011
    Posts
    559

    T

    Cool Vaagai Sooda Vaa (2011) - Suara - DVD - Rip - XviD - MP3 - 1CD - [Team SC]

    Follow us on Social Media









    Code:
    General
    Complete name: Vaagai.Sooda.Vaa.2011.Suara.DVD.XviD.1CD-SC.avi
    Format : AVI
    Format/Info: Audio Video Interleave
    File size: 703 MiB
    Duration : 2h 3mn
    Overall bit rate : 794 Kbps
    
    Video
    ID : 0
    Format : MPEG-4 Visual
    Format profile : Advanced [email protected]
    Format settings, BVOP: 2
    Format settings, QPel: Yes
    Format settings, GMC : No warppoints
    Format settings, Matrix: Default (H.263)
    Codec ID : XVID
    Codec ID/Hint: XviD
    Duration : 2h 3mn
    Bit rate : 723 Kbps
    Width: 608 pixels
    Height : 272 pixels
    Display aspect ratio : 2.25:1
    Frame rate : 25.000 fps
    Color space: YUV
    Chroma subsampling : 4:2:0
    Bit depth: 8 bits
    Scan type: Progressive
    Compression mode : Lossy
    Bits/(Pixel*Frame) : 0.175
    Stream size: 641 MiB (91%)
    Writing library: XviD 1.2.1 (UTC 2008-12-04)
    
    Audio
    ID : 1
    Format : MPEG Audio
    Format version : Version 2
    Format profile : Layer 3
    Mode : Joint stereo
    Mode extension : MS Stereo
    Codec ID : 55
    Codec ID/Hint: MP3
    Duration : 2h 3mn
    Bit rate mode: Constant
    Bit rate : 64.0 Kbps
    Channel(s) : 2 channels
    Sampling rate: 24.0 KHz
    Compression mode : Lossy
    Stream size: 56.7 MiB (8%)
    Alignment: Aligned on interleaves
    Interleave, duration : 160 ms (4.00 video frames)
    Interleave, preload duration : 216 ms
    Title: VTS_03_1 T80 3_2ch 320Kbps DELAY 0ms
    Writing library: LAME3.99r
    Encoding settings: -m j -V 4 -q 2 -lowpass 11 -b 64








    Source : Lap
    Ripper : C.Ronaldo


    Single Links:-

    Code:
    http://filevelocity.com/dndet5ixnocp/Vaagai.Sooda.Vaa.2011.Suara.DVD.XviD.1CD-SC.avi
    Or
    http://file4sharing.com/4qu85hy0ue2n/Vaagai.Sooda.Vaa.2011.Suara.DVD.XviD.1CD-SC.avi.html
    Or
    http://extabit.com/file/2daxsg7eyjrko/Vaagai.Sooda.Vaa.2011.Suara.DVD.XviD.1CD-SC.avi
    Or
    http://turbobit.net/1spks0mlqitf/Vaagai.Sooda.Vaa.2011.Suara.DVD.XviD.1CD-SC.avi.html
    Split Links :-

    Filevelocity Links:-

    Code:
    http://filevelocity.com/xhv37owtu7k9/Vaagai.Sooda.Vaa.2011.Suara.DVD.XviD.1CD-SC.avi.001
    http://filevelocity.com/0yksce3id8w6/Vaagai.Sooda.Vaa.2011.Suara.DVD.XviD.1CD-SC.avi.002
    http://filevelocity.com/durwntpdoziw/Vaagai.Sooda.Vaa.2011.Suara.DVD.XviD.1CD-SC.avi.003
    http://filevelocity.com/b5ug7a0yi8xc/Vaagai.Sooda.Vaa.2011.Suara.DVD.XviD.1CD-SC.avi.004
    File4sharing Links:-

    Code:
    http://file4sharing.com/if6l44684sw2/Vaagai.Sooda.Vaa.2011.Suara.DVD.XviD.1CD-SC.avi.001.html
    http://file4sharing.com/4rvl9swz531q/Vaagai.Sooda.Vaa.2011.Suara.DVD.XviD.1CD-SC.avi.002.html
    http://file4sharing.com/fe8qq2nx556g/Vaagai.Sooda.Vaa.2011.Suara.DVD.XviD.1CD-SC.avi.003.html
    http://file4sharing.com/mf86zztf63dw/Vaagai.Sooda.Vaa.2011.Suara.DVD.XviD.1CD-SC.avi.004.html
    Filefactory Links:-

    Code:
    http://www.filefactory.com/file/c3c1ebc/n/Vaagai.Sooda.Vaa.2011.Suara.DVD.XviD.1CD-SC.avi.001
    http://www.filefactory.com/file/c3c1ea2/n/Vaagai.Sooda.Vaa.2011.Suara.DVD.XviD.1CD-SC.avi.002
    http://www.filefactory.com/file/c3c1eba/n/Vaagai.Sooda.Vaa.2011.Suara.DVD.XviD.1CD-SC.avi.003
    http://www.filefactory.com/file/c3c1d9c/n/Vaagai.Sooda.Vaa.2011.Suara.DVD.XviD.1CD-SC.avi.004
    Extabit Links:-

    Code:
    http://extabit.com/file/2daxsg7eyjogo/Vaagai.Sooda.Vaa.2011.Suara.DVD.XviD.1CD-SC.avi.001
    http://extabit.com/file/2daxsg7eyjog8/Vaagai.Sooda.Vaa.2011.Suara.DVD.XviD.1CD-SC.avi.002
    http://extabit.com/file/2daxsg7eyjohk/Vaagai.Sooda.Vaa.2011.Suara.DVD.XviD.1CD-SC.avi.003
    http://extabit.com/file/2daxsg7eyjriw/Vaagai.Sooda.Vaa.2011.Suara.DVD.XviD.1CD-SC.avi.004
    Turbobit Links:

    Code:
    http://turbobit.net/ohh6fta60jy3/Vaagai.Sooda.Vaa.2011.Suara.DVD.XviD.1CD-SC.avi.001.html
    http://turbobit.net/gdc8wid22m42/Vaagai.Sooda.Vaa.2011.Suara.DVD.XviD.1CD-SC.avi.002.html
    http://turbobit.net/4ywi1dd66aoe/Vaagai.Sooda.Vaa.2011.Suara.DVD.XviD.1CD-SC.avi.003.html
    http://turbobit.net/tszbccpew1i7/Vaagai.Sooda.Vaa.2011.Suara.DVD.XviD.1CD-SC.avi.004.html

 

 

Posting Permissions

  • You may not post new threads
  • You may not post replies
  • You may not post attachments
  • You may not edit your posts
  •