Results 1 to 1 of 1
  1. #1
    Hot Member www.desirulez.net
    Join Date
    Jan 2011
    Posts
    1,881

    T

    Default Ek Main Aur Ekk Tu (2012) - 1/5 DVDScr - Rip - XviD - AC3 - E-Subs - 900MB - [TDT]

    Follow us on Social Media







    Ek Main Aur Ekk Tu (2012) - 1/5 DVDScr - Rip - XviD - AC3 - E-Subs - 900MB - [TDT]



















    Code:
    General
    Complete name : EkMainAurEkkTu2012_-_1-5-DVDScr-Rip-XviD-AC3-900MB-TDT.avi
    Format : AVI
    File size : 896 MiB
    Duration : 1h 46mn
    Overall bit rate : 1 171 Kbps
    Source : DvDScr @ Team ICTV.
    Ripper : KINGFISHER [~TDT~].
    
    Video
    Muxing mode : Packed bitstream
    Codec ID : XVID
    Duration : 1h 46mn
    Bit rate : 1 034 Kbps
    Width : 688 pixels
    Height : 272 pixels
    Display aspect ratio : 2.529
    Frame rate : 23.976 fps
    Color space : YUV
    Scan type : Progressive
    Bits/(Pixel*Frame) : 0.230
    Stream size : 790 MiB (88%)
    
    Audio
    Format : AC-3
    Duration : 1h 46mn
    Bit rate mode : Constant
    Bit rate : 128 Kbps
    Channel(s) : 2 channels
    Sampling rate : 48.0 KHz
    Stream size : 97.9 MiB (11%)


    Code:
    http://www.filefactory.com/file/c3ce655/n/EkMainAurEkkTu2012_-_1-5-DVDScr-Rip-XviD-AC3-900MB-TDT.avi
    Code:
    http://ul.to/r1odhbx5/EkMainAurEkkTu2012_-_1-5-DVDScr-Rip-XviD-AC3-900MB-TDT.avi

 

 

Posting Permissions

  • You may not post new threads
  • You may not post replies
  • You may not post attachments
  • You may not edit your posts
  •