Results 1 to 1 of 1
  1. #1
    Banned www.desirulez.net
    Join Date
    Feb 2011
    Posts
    2,003

    T

    Default Ek Tha Deewana(2012) - 400MB - SCAM Rip - Xvid - Mp3[Team AF]

    Follow us on Social Media







    Ek Tha Deewana(2012) - 400MB - SCAM Rip - Xvid - Mp3[Team AF]


    Rip Info

    Code:
    Format                                   : AVI
    Format/Info                              : Audio Video Interleave
    File size                                : 405 MiB
    Duration                                 : 2h 5mn
    Overall bit rate                         : 450 Kbps
    Writing application                      : Lavf52.39.1
    Writing library                          : VirtualDub build 32842/release
    
    Video
    ID                                       : 0
    Format                                   : MPEG-4 Visual
    Format profile                           : Advanced [email protected]
    Format settings, BVOP                    : 2
    Format settings, QPel                    : No
    Format settings, GMC                     : No warppoints
    Format settings, Matrix                  : Default (H.263)
    Muxing mode                              : Packed bitstream
    Codec ID                                 : XVID
    Codec ID/Hint                            : XviD
    Duration                                 : 2h 5mn
    Bit rate                                 : 374 Kbps
    Width                                    : 624 pixels
    Height                                   : 272 pixels
    Display aspect ratio                     : 2.25:1
    Frame rate                               : 25.000 fps
    Color space                              : YUV
    Chroma subsampling                       : 4:2:0
    Bit depth                                : 8 bits
    Scan type                                : Progressive
    Compression mode                         : Lossy
    Bits/(Pixel*Frame)                       : 0.088
    Stream size                              : 336 MiB (83%)
    Writing library                          : XviD 64
    
    Audio
    ID                                       : 1
    Format                                   : MPEG Audio
    Format version                           : Version 1
    Format profile                           : Layer 3
    Mode                                     : Joint stereo
    Mode extension                           : MS Stereo
    Codec ID                                 : 55
    Codec ID/Hint                            : MP3
    Duration                                 : 2h 5mn
    Bit rate mode                            : Constant
    Bit rate                                 : 64.0 Kbps
    Channel(s)                               : 2 channels
    Sampling rate                            : 44.1 KHz
    Compression mode                         : Lossy
    Stream size                              : 57.6 MiB (14%)
    Alignment                                : Aligned on interleaves
    Interleave, duration                     : 26 ms (0.65 video frame)
    Interleave, preload duration             : 522 ms












    For Getting High Speed Download speeed Pls Purchase Premium From this Link And Support me By Providing More Quality Releases
    Code:
    http://ul.to/0fio7ixq
    Single Link
    Code:
    http://filevelocity.com/bhzpfqrgyc40/etd_scam_.avi
    
    http://fooget.com/ew77fl4g6zc4.html
    
    http://extabit.com/file/27b54wz37jakh

 

 

Posting Permissions

  • You may not post new threads
  • You may not post replies
  • You may not post attachments
  • You may not edit your posts
  •