Results 1 to 1 of 1
  1. #1
    shawn rebecca
    Guest

    Default UFC On Fuel Sanchez vs Ellenberger HDTV x264 Post Fight Show

    Follow us on Social Media







    UFC On Fuel Sanchez vs Ellenberger HDTV x264 Post Fight Show Princess donna


    UFC.On.Fuel.Sanchez.vs.Ellenberger.HDTV.x264-Post Show.Princess donna.mp4
    Format : MPEG-4
    Format profile : Base Media
    Codec ID : isom
    File size : 465 MiB
    Duration : 45mn 27s
    Overall bit rate : 1 431 Kbps
    Encoded date : UTC 2012-02-15 13:16:53
    Tagged date : UTC 2012-02-15 13:16:53

    Video
    ID : 1
    Format : AVC
    Format/Info : Advanced Video Codec
    Format profile : [email protected]
    Format settings, CABAC : Yes
    Format settings, ReFrames : 4 frames
    Codec ID : avc1
    Codec ID/Info : Advanced Video Coding
    Duration : 45mn 27s
    Bit rate : 1 237 Kbps
    Width : 704 pixels
    Height : 400 pixels
    Display aspect ratio : 16:9
    Frame rate mode : Constant
    Frame rate : 29.970 fps
    Color space : YUV
    Chroma subsampling : 4:2:0
    Bit depth : 8 bits
    Scan type : Progressive
    Bits/(Pixel*Frame) : 0.147
    Stream size : 402 MiB (86%)
    Encoded date : UTC 2011-09-08 11:43:25
    Tagged date : UTC 2012-02-15 13:17:45

    Audio
    ID : 2
    Format : AAC
    Format/Info : Advanced Audio Codec
    Format profile : LC
    Codec ID : 40
    Duration : 45mn 27s
    Bit rate mode : Variable
    Bit rate : 192 Kbps
    Channel(s) : 2 channels
    Channel positions : Front: L R
    Sampling rate : 48.0 KHz
    Compression mode : Lossy
    Stream size : 61.6 MiB (13%)
    Encoded date : UTC 2011-09-08 11:43:25
    Tagged date : UTC 2012-02-15 13:17:45

    1 LiNK DownLOAD

    Code:
    http://www.cloudcache.cc/4mdw5peabwcj/UFC.On.Fuel.Sanchez.vs.Ellenberger.HDTV.x264-Post_Show.Princess_donna.mp4
    Code:
    http://www.filebox.com/pv6vsvss87sz]
    Code:
    http://ul.to/b3xrn8is/UFC.On.Fuel.Sanchez.vs.Ellenberger.HDTV.x264-Post Show.Princess donna.mp4

 

 

Posting Permissions

  • You may not post new threads
  • You may not post replies
  • You may not post attachments
  • You may not edit your posts
  •