Results 1 to 1 of 1
  1. #1
    Banned www.desirulez.net
    Join Date
    Oct 2010
    Posts
    2,885

    Talking WWE.Monday.Night.RAW.2012.02.06.HDTV.XviD-vasylius

    Follow us on Social Media





    WWE.Monday.Night.RAW.2012.02.06.HDTV.XviD-vasylius

    General
    Complete name : D:\WWE.Monday.Night.RAW.2012.02.06.HDTV.XviD.vasylius.avi
    Format : AVI
    Format/Info : Audio Video Interleave
    File size : 969 MiB
    Duration : 1h 41mn
    Overall bit rate : 1 334 Kbps


    Video
    ID : 0
    Format : MPEG-4 Visual
    Format profile : Advanced [email protected]
    Format settings, BVOP : 2
    Format settings, QPel : No
    Format settings, GMC : No warppoints
    Format settings, Matrix : Default (H.263)
    Muxing mode : Packed bitstream
    Codec ID : XVID
    Codec ID/Hint : XviD
    Duration : 1h 41mn
    Bit rate : 1 196 Kbps
    Width : 624 pixels
    Height : 352 pixels
    Display aspect ratio : 16:9
    Frame rate : 25.000 fps
    Color space : YUV
    Chroma subsampling : 4:2:0
    Bit depth : 8 bits
    Scan type : Progressive
    Compression mode : Lossy
    Bits/(Pixel*Frame) : 0.218
    Stream size : 869 MiB (90%)
    Writing library : XviD 1.2.1 (UTC 2008-12-04)

    Audio
    ID : 1
    Format : AC-3
    Format/Info : Audio Coding 3
    Mode extension : CM (complete main)
    Codec ID : 2000
    Duration : 1h 41mn
    Bit rate mode : Constant
    Bit rate : 128 Kbps
    Channel(s) : 2 channels
    Channel positions : Front: L R
    Sampling rate : 48.0 KHz
    Bit depth : 16 bits
    Compression mode : Lossy
    Stream size : 93.0 MiB (10%)
    Alignment : Aligned on interleaves
    Interleave, duration : 40 ms (1.00 video frame)
    Interleave, preload duration : 512 ms
    Code:
    FILEFACTORY
    ..DOWN..
    
    UPLOADED.TO
    http://ul.to/5f8433wg/WWE.Monday.Night.RAW.2012.02.06.HDTV.XviD.vasylius.avi
    
    SHRGLE
    http://www.shragle.com/files/ee1ec1b7/WWE.Monday.Night.RAW.2012.02.06.HDTV.XviD.vasylius.avi
    
    NETLOAD
    http://netload.in/dateiC1r7M0FmnT/WWE.Monday.Night.RAW.2012.02.06.HDTV.XviD.vasylius.avi.htm
    
    TURBO
    http://turbobit.net/rz8qb54pm41h/WWE.Monday.Night.RAW.2012.02.06.HDTV.XviD.vasylius.avi.html

 

 

Posting Permissions

  • You may not post new threads
  • You may not post replies
  • You may not post attachments
  • You may not edit your posts
  •