Results 1 to 1 of 1
  1. #1
    dR Wrestlers www.desirulez.net
    Join Date
    Feb 2011
    Location
    Cairo, Egypt
    Posts
    143

    T

    Talking WWE.Friday.Night.Smackdown.2012.02.03.HDTV.XviD[Ebi+vasylius]

    Follow us on Social Media







    WWE.Friday.Night.Smackdown.2012.02.03.HDTV.XviD-vasylius

    Code:

    General
    Complete name : D:\WWE.Friday.Night.Smackdown.2012.02.03.HDTV.XviD-vasylius.avi
    Format : AVI
    Format/Info : Audio Video Interleave
    File size : 832 MiB
    Duration : 1h 27mn
    Overall bit rate : 1 336 Kbps

    Video
    ID : 0
    Format : MPEG-4 Visual
    Format profile : Advanced [email protected]
    Format settings, BVOP : 2
    Format settings, QPel : No
    Format settings, GMC : No warppoints
    Format settings, Matrix : Default (H.263)
    Muxing mode : Packed bitstream
    Codec ID : XVID
    Codec ID/Hint : XviD
    Duration : 1h 27mn
    Bit rate : 1 199 Kbps
    Width : 624 pixels
    Height : 352 pixels
    Display aspect ratio : 16:9
    Frame rate : 25.000 fps
    Color space : YUV
    Chroma subsampling : 4:2:0
    Bit depth : 8 bits
    Scan type : Progressive
    Compression mode : Lossy
    Bits/(Pixel*Frame) : 0.218
    Stream size : 747 MiB (90%)
    Writing library : XviD 1.2.1 (UTC 2008-12-04)

    Audio
    ID : 1
    Format : AC-3
    Format/Info : Audio Coding 3
    Mode extension : CM (complete main)
    Codec ID : 2000
    Duration : 1h 27mn
    Bit rate mode : Constant
    Bit rate : 128 Kbps
    Channel(s) : 2 channels
    Channel positions : Front: L R
    Sampling rate : 48.0 KHz
    Bit depth : 16 bits
    Compression mode : Lossy
    Stream size : 79.7 MiB (10%)
    Alignment : Aligned on interleaves
    Interleave, duration : 40 ms (1.00 video frame)

    DOWNLOAD:
    Code:
    DEPOSITFILES
    http://depositfiles.com/files/6qkjvabyp
    
    GRUPLOAD "Resumable"
    http://grupload.com/m2i6h3efpiwh/WWE.Friday.Night.Smackdown.2012.02.03.HDTV.XviD-vasylius.avi.html
    
    LETITBIT
    http://letitbit.net/download/96178.91d68f33ce45a2e62015af408158/WWE.Friday.Night.Smackdown.2012.02.03.HDTV.XviD-vasylius.avi.html
    
    TURBOBIT
    http://turbobit.net/yty1yb2x08r5.html
    
    UPLOADED.TO
    http://ul.to/1ik8guxg
    
    EASYBYTEZ
    http://www.easybytez.com/4cqeg21li6lm
    
    SHRAGLE
    http://www.shragle.com/files/4bdd58e0/WWE.Friday.Night.Smackdown.2012.02.03.HDTV.XviD-vasylius.avi

    WWE.Friday.Night.Smackdown.2012.02.03.HDTV.XviD-Ebi


    Show WWE Friday Night Smackdown
    Genre Wrestling
    Release Date 2012-02-03
    Air Date 2012-02-03
    Source PAL/HDTV
    Container AVI
    Video XviD, 1339Kbps, 29.970fps, 624x352, 16:9
    Audio MP3, 128Kbps, 48KHz, 2ch
    Size 835,962,986
    Runtime 1h 23mn 15s
    DOWNLOAD:
    Code:
    DEPOSITFILES
    http://depositfiles.com/files/lrofuuf7m
    
    LETITBIT
    http://letitbit.net/download/53550.504017f0a3a720d5872ea2773371/WWE.Friday.Night.Smackdown.2012.02.03.HDTV.XviD-Ebi.avi.html
    
    TURBOBIT
    http://turbobit.net/wdnuk0anzp2n.html
    
    UPLOADED.To
    http://ul.to/7f1l86bg
    
    EASYBYTEZ
    http://www.easybytez.com/ucljdczjsuf7
    
    SHRAGLE
    http://www.shragle.com/files/e61aa2d2/WWE.Friday.Night.Smackdown.2012.02.03.HDTV.XviD-Ebi.avi
    
    GRUPLOAD "Resumable"
    http://grupload.com/vkx7zgkqrbzb/WWE.Friday.Night.Smackdown.2012.02.03.HDTV.XviD-Ebi.avi.html
    [/CENTER]

 

 

Posting Permissions

  • You may not post new threads
  • You may not post replies
  • You may not post attachments
  • You may not edit your posts
  •