Results 1 to 1 of 1
  1. #1

    Thumbs up Khal Nayak (1993) - Untouched - DVD9 - NTSC - Ibraram - DrC

    Follow us on Social Media








    Movie : Khal Nayak (1993)
    wikipedia : http://en.wikipedia.org/wiki/Khalnayak
    Imdb : http://www.imdb.com/title/tt0107311/
    Facebook : http://www.facebook.com/pages/Khalnayak/109552619071684
    Language : Hindi
    Distributor : DEI
    Source : DVD9 @ DrC
    Size : 7.71 GB
    Run Time : 190 Minutes
    Container : DVD 9
    Release Date :
    Genre : Action
    Director : Subhash Ghai
    Writers : Subhash Ghai, Ram Kelkar (screenplay)
    Stars : Rakhee Gulzar, Jackie Shroff and Sanjay Dutt
    Lyricist : Anand Bakshi
    Music : Laxmikant-Pyarelal
    Label :
    User Rating : 7.0/10 from 666 users



    Format : MPEG-PS
    Overall bit rate mode : Variable
    Overall bit rate : 5 455 Kbps

    Video
    ID : 224 (0xE0)
    Format : MPEG Video
    Format version : Version 2
    Format profile : [email protected]
    Format settings, BVOP : Yes
    Format settings, Matrix : Default
    Format settings, GOP : M=3, N=13
    Bit rate mode : Variable
    Bit rate : 5 122 Kbps
    Maximum bit rate : 9 000 Kbps
    Width : 720 pixels
    Height : 480 pixels
    Display aspect ratio : 4:3
    Frame rate : 23.976 fps
    Standard : NTSC
    Color space : YUV
    Chroma subsampling : 4:2:0
    Bit depth : 8 bits
    Scan type : Progressive
    Scan order : 2:3 Pulldown
    Compression mode : Lossy
    Bits/(Pixel*Frame) : 0.618
    Stream size : 961 MiB (94%)
    Color primaries : BT.470-2 System B, BT.470-2 System G
    Transfer characteristics : BT.470-2 System B, BT.470-2 System G
    Matrix coefficients : BT.470-2 System B, BT.470-2 System G

    Audio
    ID : 189 (0xBD)-128 (0x80)
    Format : AC-3
    Format/Info : Audio Coding 3
    Format profile : Dolby Digital
    Mode extension : CM (complete main)
    Muxing mode : DVD-Video
    Bit rate mode : Constant
    Bit rate : 224 Kbps
    Channel(s) : 2 channels
    Channel positions : Front: L R
    Sampling rate : 48.0 KHz
    Bit depth : 16 bits
    Compression mode : Lossy
    Delay relative to video : -559ms
    Stream size : 42.1 MiB (4%)










    700MB Parts | INTERCHANGEABLE LINKS | NO PASSWORD


    Code:
    http://www.netload.in/datei5KloVGcgBo/AMP-Khal.Nayak.1993.Untouched.DVD9.NTSC.Ibraram.part01.rar.htm
    http://www.netload.in/dateiS7qMmUeGy4/AMP-Khal.Nayak.1993.Untouched.DVD9.NTSC.Ibraram.part02.rar.htm
    http://www.netload.in/dateiJyvlriB9Yh/AMP-Khal.Nayak.1993.Untouched.DVD9.NTSC.Ibraram.part03.rar.htm
    http://www.netload.in/dateiQJRE5tydEs/AMP-Khal.Nayak.1993.Untouched.DVD9.NTSC.Ibraram.part04.rar.htm
    http://www.netload.in/datei19ATBStlUp/AMP-Khal.Nayak.1993.Untouched.DVD9.NTSC.Ibraram.part05.rar.htm
    http://www.netload.in/datei5bNhqxIgtB/AMP-Khal.Nayak.1993.Untouched.DVD9.NTSC.Ibraram.part06.rar.htm
    http://www.netload.in/dateiJ5cEzmzUdi/AMP-Khal.Nayak.1993.Untouched.DVD9.NTSC.Ibraram.part07.rar.htm
    http://www.netload.in/dateilmE7jSFrmS/AMP-Khal.Nayak.1993.Untouched.DVD9.NTSC.Ibraram.part08.rar.htm
    http://www.netload.in/dateidMHdJB8oJ1/AMP-Khal.Nayak.1993.Untouched.DVD9.NTSC.Ibraram.part09.rar.htm
    http://www.netload.in/dateio16WAc6Fyn/AMP-Khal.Nayak.1993.Untouched.DVD9.NTSC.Ibraram.part10.rar.htm
    http://www.netload.in/dateizwdF7OgDaP/AMP-Khal.Nayak.1993.Untouched.DVD9.NTSC.Ibraram.part11.rar.htm
    http://www.netload.in/dateig1o4YUw4sP/AMP-Khal.Nayak.1993.Untouched.DVD9.NTSC.Ibraram.part12.rar.htm

    Code:
    http://ul.to/huuu95uu/AMP-Khal.Nayak.1993.Untouched.DVD9.NTSC.Ibraram.part01.rar
    http://ul.to/ded8kgfg/AMP-Khal.Nayak.1993.Untouched.DVD9.NTSC.Ibraram.part02.rar
    http://ul.to/ao3e6my3/AMP-Khal.Nayak.1993.Untouched.DVD9.NTSC.Ibraram.part03.rar
    http://ul.to/ydrpwmdk/AMP-Khal.Nayak.1993.Untouched.DVD9.NTSC.Ibraram.part04.rar
    http://ul.to/huvn1myd/AMP-Khal.Nayak.1993.Untouched.DVD9.NTSC.Ibraram.part05.rar
    http://ul.to/o03mm6gz/AMP-Khal.Nayak.1993.Untouched.DVD9.NTSC.Ibraram.part06.rar
    http://ul.to/unjd3tpk/AMP-Khal.Nayak.1993.Untouched.DVD9.NTSC.Ibraram.part07.rar
    http://ul.to/glmct1t3/AMP-Khal.Nayak.1993.Untouched.DVD9.NTSC.Ibraram.part08.rar
    http://ul.to/5920u6ci/AMP-Khal.Nayak.1993.Untouched.DVD9.NTSC.Ibraram.part09.rar
    http://ul.to/icnnpbn2/AMP-Khal.Nayak.1993.Untouched.DVD9.NTSC.Ibraram.part10.rar
    http://ul.to/l3kyz6fs/AMP-Khal.Nayak.1993.Untouched.DVD9.NTSC.Ibraram.part11.rar
    http://ul.to/qenbweae/AMP-Khal.Nayak.1993.Untouched.DVD9.NTSC.Ibraram.part12.rar

    Code:
    http://www.wupload.com/file/2653365712/AMP-Khal.Nayak.1993.Untouched.DVD9.NTSC.Ibraram.part01.rar
    http://www.wupload.com/file/2653365717/AMP-Khal.Nayak.1993.Untouched.DVD9.NTSC.Ibraram.part02.rar
    http://www.wupload.com/file/2653365742/AMP-Khal.Nayak.1993.Untouched.DVD9.NTSC.Ibraram.part03.rar
    http://www.wupload.com/file/2653365747/AMP-Khal.Nayak.1993.Untouched.DVD9.NTSC.Ibraram.part04.rar
    http://www.wupload.com/file/2653366212/AMP-Khal.Nayak.1993.Untouched.DVD9.NTSC.Ibraram.part05.rar
    http://www.wupload.com/file/2653366217/AMP-Khal.Nayak.1993.Untouched.DVD9.NTSC.Ibraram.part06.rar
    http://www.wupload.com/file/2653366717/AMP-Khal.Nayak.1993.Untouched.DVD9.NTSC.Ibraram.part07.rar
    http://www.wupload.com/file/2653366727/AMP-Khal.Nayak.1993.Untouched.DVD9.NTSC.Ibraram.part08.rar
    http://www.wupload.com/file/2653367317/AMP-Khal.Nayak.1993.Untouched.DVD9.NTSC.Ibraram.part09.rar
    http://www.wupload.com/file/2653367327/AMP-Khal.Nayak.1993.Untouched.DVD9.NTSC.Ibraram.part10.rar
    http://www.wupload.com/file/2653367947/AMP-Khal.Nayak.1993.Untouched.DVD9.NTSC.Ibraram.part11.rar
    http://www.wupload.com/file/2653367937/AMP-Khal.Nayak.1993.Untouched.DVD9.NTSC.Ibraram.part12.rar
    Man is still the most extraordinary computer of all.




 

 

Posting Permissions

  • You may not post new threads
  • You may not post replies
  • You may not post attachments
  • You may not edit your posts
  •