Results 1 to 1 of 1
  1. #1
    dR Rockers www.desirulez.net
    Join Date
    Sep 2011
    Posts
    1,288

    T

    Arrow WWE.Friday.Night.Smackdown.2012.01.27.HDTV.XviD-vasylius

    Follow us on Social Media











    WWE.Friday.Night.Smackdown.2012.01.27.HDTV.XviD-vasylius





    Code:
    General
    Complete name                            : D:\WWE.Friday.Night.Smackdown.2012.01.27.HDTV.XviD-vasylius.avi
    Format                                  : AVI
    Format/Info                              : Audio Video Interleave
    File size                                : 680 MiB
    Duration                                : 1h 11mn
    Overall bit rate                        : 1 337 Kbps
    Writing library                          : VirtualDub build 34703/release
    
    Video
    ID                                      : 0
    Format                                  : MPEG-4 Visual
    Format profile                          : Advanced [email protected]
    Format settings, BVOP                    : 2
    Format settings, QPel                    : No
    Format settings, GMC                    : No warppoints
    Format settings, Matrix                  : Default (H.263)
    Muxing mode                              : Packed bitstream
    Codec ID                                : XVID
    Codec ID/Hint                            : XviD
    Duration                                : 1h 11mn
    Bit rate                                : 1 199 Kbps
    Width                                    : 624 pixels
    Height                                  : 352 pixels
    Display aspect ratio                    : 16:9
    Frame rate                              : 25.000 fps
    Color space                              : YUV
    Chroma subsampling                      : 4:2:0
    Bit depth                                : 8 bits
    Scan type                                : Progressive
    Compression mode                        : Lossy
    Bits/(Pixel*Frame)                      : 0.218
    Stream size                              : 610 MiB (90%)
    Writing library                          : XviD 1.2.1 (UTC 2008-12-04)
    
    Audio
    ID                                      : 1
    Format                                  : MPEG Audio
    Format version                          : Version 1
    Format profile                          : Layer 3
    Mode                                    : Joint stereo
    Mode extension                          : MS Stereo
    Codec ID                                : 55
    Codec ID/Hint                            : MP3
    Duration                                : 1h 11mn
    Bit rate mode                            : Constant
    Bit rate                                : 128 Kbps
    Channel(s)                              : 2 channels
    Sampling rate                            : 48.0 KHz
    Compression mode                        : Lossy
    Stream size                              : 65.1 MiB (10%)
    Alignment                                : Split accross interleaves
    Interleave, duration                    : 40 ms (1.00 video frame)
    Interleave, preload duration            : 500 ms






    Code:
    SHRAGLE
    http://www.shragle.com/files/25bcae2a/WWE.Friday.Night.Smackdown.2012.01.27.HDTV.XviD-vasylius.avi
    
    UPLOADED-TO
    http://ul.to/3gxl8u33/WWE.Friday.Night.Smackdown.2012.01.27.HDTV.XviD-vasylius.avi
    
    HELLSHARE
    http://download.hellshare.com/wwe-friday-night-smackdown-2012-01-27-hdtv-xvid-vasylius-avi/4934277/
    
    NETLOAD
    http://www.netload.in/dateinax8nAzGWC/WWE.Friday.Night.Smackdown.2012.01.27.HDTV.XviD-vasylius.avi.htm
    
    TURBOBIT
    http://turbobit.net/1sfbemxfzymw/WWE.Friday.Night.Smackdown.2012.01.27.HDTV.XviD-vasylius.avi.html

 

 

Posting Permissions

  • You may not post new threads
  • You may not post replies
  • You may not post attachments
  • You may not edit your posts
  •