Results 1 to 1 of 1
  1. #1
    Banned www.desirulez.net
    Join Date
    Feb 2011
    Posts
    2,003

    T

    Default Agneepath(2011) - 1CD - YamraJ Un Touched SCAM -MPEG[Team AF]

    Follow us on Social Media







    Agneepath(2011) - 1CD - YamraJ Un Touched SCAM -MPEG[Team AF]



    Code:
    Format                                   : MPEG-PS
    File size                                : 699 MiB
    Duration                                 : 2h 26mn
    Overall bit rate mode                    : Variable
    Overall bit rate                         : 667 Kbps
    Writing library                          : encoded by TMPGEnc Video Mastering Works 5 Version. 5.0.5.32
    
    Video
    ID                                       : 224 (0xE0)
    Format                                   : MPEG Video
    Format version                           : Version 1
    Format settings, BVOP                    : Yes
    Format settings, Matrix                  : Custom
    Duration                                 : 2h 26mn
    Bit rate mode                            : Variable
    Bit rate                                 : 590 Kbps
    Maximum bit rate                         : 593 Kbps
    Width                                    : 352 pixels
    Height                                   : 288 pixels
    Display aspect ratio                     : 4:3
    Frame rate                               : 25.000 fps
    Standard                                 : PAL
    Color space                              : YUV
    Bit depth                                : 8 bits
    Scan type                                : Progressive
    Compression mode                         : Lossy
    Bits/(Pixel*Frame)                       : 0.233
    Stream size                              : 618 MiB (88%)
    Writing library                          : TMPGEnc Video Mastering Works 5 Version. 5.0.5.32
    
    Audio
    ID                                       : 192 (0xC0)
    Format                                   : MPEG Audio
    Format version                           : Version 1
    Format profile                           : Layer 2
    Duration                                 : 2h 26mn
    Bit rate mode                            : Constant
    Bit rate                                 : 64.0 Kbps
    Channel(s)                               : 2 channels
    Sampling rate                            : 48.0 KHz
    Compression mode                         : Lossy
    Stream size                              : 67.0 MiB (10%)


    Credits To Team AF


    Single Link
    Code:
    http://ul.to/4h4ahl18
    
    http://turbobit.net/vbuq4g8whdnc.html

 

 

Posting Permissions

  • You may not post new threads
  • You may not post replies
  • You may not post attachments
  • You may not edit your posts
  •