Results 1 to 1 of 1
  1. #1

    Default WWE.Monday.Night.RAW.2012.01.16.HDTV.1080i-vasylius

    Follow us on Social Media







    WWE.Monday.Night.RAW.2012.01.16.HDTV.1080i-vasylius

    This file was not capped / created by the uploader. Full credit and all of your thanks should go to that person. If this is your file, thank you

    Description General
    ID : 1 (0x1)
    Complete name : D:\WWE.Monday.Night.RAW.2012.01.16.HDTV.1080i.vasyliusi.ts
    Format : MPEG-TS
    File size : 9.86 GiB
    Duration : 1h 34mn
    Overall bit rate : 14.9 Mbps

    Video
    ID : 767 (0x2FF)
    Menu ID : 1 (0x1)
    Format : AVC
    Format/Info : Advanced Video Codec
    Format profile : [email protected]
    Format settings, CABAC : Yes
    Format settings, ReFrames : 4 frames
    Codec ID : 27
    Duration : 1h 34mn
    Bit rate : 13.8 Mbps
    Width : 1 920 pixels
    Height : 1 080 pixels
    Display aspect ratio : 16:9
    Frame rate : 25.000 fps
    Standard : Component
    Color space : YUV
    Chroma subsampling : 4:2:0
    Bit depth : 8 bits
    Scan type : Interlaced
    Scan order : Top Field First
    Bits/(Pixel*Frame) : 0.266
    Stream size : 9.12 GiB (92%)
    Color primaries : BT.709-5, BT.1361, IEC 61966-2-4, SMPTE RP177
    Transfer characteristics : BT.709-5, BT.1361
    Matrix coefficients : BT.709-5, BT.1361, IEC 61966-2-4 709, SMPTE RP177

    Audio
    ID : 771 (0x303)
    Menu ID : 1 (0x1)
    Format : AC-3
    Format/Info : Audio Coding 3
    Mode extension : CM (complete main)
    Codec ID : 6
    Duration : 1h 34mn
    Bit rate mode : Constant
    Bit rate : 384 Kbps
    Channel(s) : 5 channels
    Channel positions : Front: L C R, Side: L R
    Sampling rate : 48.0 KHz
    Bit depth : 16 bits
    Compression mode : Lossy
    Stream size : 260 MiB (3%)

    Code:
    http://depositfiles.com/files/tzgta67bp
    http://depositfiles.com/files/o0cpfl3ee
    http://depositfiles.com/files/rytbds3cz
    http://depositfiles.com/files/d0kk4rknf
    http://depositfiles.com/files/1evly82za
    http://depositfiles.com/files/bgtsvnuad
    http://depositfiles.com/files/8dzjoejzj
    http://depositfiles.com/files/x4iwgkct0
    http://depositfiles.com/files/8asac0tve
    http://depositfiles.com/files/01rar7t47
    http://depositfiles.com/files/n9zz75lug
    
    http://www.fileserve.com/file/RDhZqzy
    http://www.fileserve.com/file/WGnAACP
    http://www.fileserve.com/file/6vkBNkq
    http://www.fileserve.com/file/S7GJkvG
    http://www.fileserve.com/file/tpCU7F4
    http://www.fileserve.com/file/Ws79Bp4
    http://www.fileserve.com/file/f3aDvJh
    http://www.fileserve.com/file/ge8Wyd6
    http://www.fileserve.com/file/WstZ8fn
    http://www.fileserve.com/file/vGWjgDp
    http://www.fileserve.com/file/25uvPRw
    
    http://www.filesonic.com/file/b0oW0xU
    http://www.filesonic.com/file/cumKFFW
    http://www.filesonic.com/file/lH9UGGU
    http://www.filesonic.com/file/X2zQ8w6
    http://www.filesonic.com/file/AdQOQZL
    http://www.filesonic.com/file/NDrpruq
    http://www.filesonic.com/file/b0oW4FH
    http://www.filesonic.com/file/zgQxHua
    http://www.filesonic.com/file/D4Xm4Kf
    http://www.filesonic.com/file/SD9uMMG
    http://www.filesonic.com/file/jTC1XnM
    
    http://download.hellshare.com/wwe-monday-night-raw-2012-01-16-hdtv-1080i-vasyliusi-part01-rar/4797297/
    http://download.hellshare.com/wwe-monday-night-raw-2012-01-16-hdtv-1080i-vasyliusi-part02-rar/4797283/
    http://download.hellshare.com/wwe-monday-night-raw-2012-01-16-hdtv-1080i-vasyliusi-part03-rar/4797278/
    http://download.hellshare.com/wwe-monday-night-raw-2012-01-16-hdtv-1080i-vasyliusi-part04-rar/4797299/
    http://download.hellshare.com/wwe-monday-night-raw-2012-01-16-hdtv-1080i-vasyliusi-part05-rar/4797286/
    http://download.hellshare.com/wwe-monday-night-raw-2012-01-16-hdtv-1080i-vasyliusi-part06-rar/4797295/
    http://download.hellshare.com/wwe-monday-night-raw-2012-01-16-hdtv-1080i-vasyliusi-part07-rar/4797287/
    http://download.hellshare.com/wwe-monday-night-raw-2012-01-16-hdtv-1080i-vasyliusi-part08-rar/4797289/
    http://download.hellshare.com/wwe-monday-night-raw-2012-01-16-hdtv-1080i-vasyliusi-part09-rar/4797251/
    http://download.hellshare.com/wwe-monday-night-raw-2012-01-16-hdtv-1080i-vasyliusi-part10-rar/4797279/
    http://download.hellshare.com/wwe-monday-night-raw-2012-01-16-hdtv-1080i-vasyliusi-part11-rar/4797196/

 

 

Posting Permissions

  • You may not post new threads
  • You may not post replies
  • You may not post attachments
  • You may not edit your posts
  •