Results 1 to 1 of 1
  1. #1
    dR Contributor www.desirulez.net
    Join Date
    Jan 2011
    Posts
    2,299

    T

    Smile Chalis Chaurasi (2012) - 400MB - ScamRip - Xvid - MP3 - [Team AF]

    Follow us on Social Media







    Format : AVI
    Format/Info : Audio Video Interleave
    File size : 419 MiB
    Duration : 1h 46mn
    Overall bit rate : 552 Kbps
    Writing application : Lavf52.39.1
    Writing library : VirtualDub build 32842/release

    Video
    ID : 0
    Format : MPEG-4 Visual
    Format profile : Advanced [email protected]
    Format settings, BVOP : 2
    Format settings, QPel : No
    Format settings, GMC : No warppoints
    Format settings, Matrix : Default (H.263)
    Muxing mode : Packed bitstream
    Codec ID : XVID
    Codec ID/Hint : XviD
    Duration : 1h 46mn
    Bit rate : 475 Kbps
    Width : 624 pixels
    Height : 272 pixels
    Display aspect ratio : 2.25:1
    Frame rate : 25.000 fps
    Color space : YUV
    Chroma subsampling : 4:2:0
    Bit depth : 8 bits
    Scan type : Progressive
    Compression mode : Lossy
    Bits/(Pixel*Frame) : 0.112
    Stream size : 361 MiB (86%)
    Writing library : XviD 64

    Audio
    ID : 1
    Format : MPEG Audio
    Format version : Version 1
    Format profile : Layer 3
    Mode : Joint stereo
    Mode extension : MS Stereo
    Codec ID : 55
    Codec ID/Hint : MP3
    Duration : 1h 46mn
    Bit rate mode : Constant
    Bit rate : 64.0 Kbps
    Channel(s) : 2 channels
    Sampling rate : 48.0 KHz
    Compression mode : Lossy
    Stream size : 48.5 MiB (12%)
    Alignment : Aligned on interleaves
    Interleave, duration : 24 ms (0.60 video frame)
    Interleave, preload duration : 504 ms
    Writing library : LAME3.96.1








    Full Credits to "Team AF"



    Code:
    http://www.fileserve.com/file/quUBFJ2
    OR

    Code:
    http://muchshare.net/j9saijwid95z

 

 

Posting Permissions

  • You may not post new threads
  • You may not post replies
  • You may not post attachments
  • You may not edit your posts
  •