Results 1 to 1 of 1
  1. #1
    Super Member www.desirulez.net
    Join Date
    Oct 2011
    Posts
    168

    T

    Default The Dirty Picture (2011) Xvid 1/5 DvdScr Rip AC3 [TDT]

    Follow us on Social Media







    The Dirty Picture (2011) Xvid 1/5 DvdScr Rip AC3 [TDT]




    N.F.O

    Code:
    General
    Complete name : The Dirty Pictures (2011) - Xvid - DvdScr Rip - AC3 - [TDT].avi
    
    Format : AVI
    Format/Info : Audio Video Interleave
    File size : 896 MiB
    Duration : 2h 11mn
    Overall bit rate : 950 Kbps
    Writing application : VirtualDubMod 1.5.10.3 | VirtualDub-Fr.org || (build 2550/release)
    Writing library : VirtualDubMod build 2550/release
    Source : DvDScr @ Team ICTV .. Thnx A LOT 
    Ripper : KINGFISHER [~TDT~].
    
    
    Video
    ID : 0
    Format : MPEG-4 Visual
    Format profile : Advanced [email protected]
    Format settings, BVOP : 1
    Format settings, QPel : No
    Format settings, GMC : No warppoints
    Format settings, Matrix : Default (H.263)
    Muxing mode : Packed bitstream
    Codec ID : XVID
    Codec ID/Hint : XviD
    Duration : 2h 11mn
    Bit rate : 813 Kbps
    Width : 688 pixels
    Height : 272 pixels
    Display aspect ratio : 2.529
    Frame rate : 23.976 fps
    Color space : YUV
    Chroma subsampling : 4:2:0
    Bit depth : 8 bits
    Scan type : Progressive
    Compression mode : Lossy
    Bits/(Pixel*Frame) : 0.181
    Stream size : 766 MiB (86%)
    
    
    Audio
    ID : 1
    Format : AC-3
    Format/Info : Audio Coding 3
    Mode extension : CM (complete main)
    Codec ID : 2000
    Duration : 2h 11mn
    Bit rate mode : Constant
    Bit rate : 128 Kbps
    Channel(s) : 2 channels
    Channel positions : Front: L R
    Sampling rate : 48.0 KHz
    Bit depth : 16 bits
    Compression mode : Lossy
    Stream size : 121 MiB (13%)
    Alignment : Split accross interleaves
    Interleave, duration : 42 ms (1.00 video frame)
    Interleave, preload duration : 500 ms
    -





    -



    Download Links



    FOR

    EXTREME

    DOWNLOAD

    SPEED



    -->> Upgrade Your Account
    Code:
    http://uploading.com/files/5b9b5d3f/JA.The_Dirty_Pictures_2011_-_Xvid_-_DvdScr_Rip_-_AC3_-_TDT.avi/


    Code:
    http://filepost.com/files/aa4abfc8/JA.The_Dirty_Pictures_2011_-_Xvid_-_DvdScr_Rip_-_AC3_-_TDT.avi/

    * NO PASSWORD
    * LINKS ARE INTERCHANGEABLE



    ~~~>> Took Hours To Upload.
    ~~~>> Takes Only 5 seconds. To Say Thanks.

 

 

Posting Permissions

  • You may not post new threads
  • You may not post replies
  • You may not post attachments
  • You may not edit your posts
  •